Післяобрази / Powidoki / Afterimage (2016) 720p Pol | sub Ukr/Eng

Нові коментарі

Нова тема   Відповісти
Автор Повідомлення
ivan vyrvyvuho 
VIP


З нами з: 19.08.12
Востаннє: 30.11.20
Повідомлень: 1177

2017-10-08 12:17  
Післяобрази / Powidoki / Afterimage (2016) 720p Pol | sub Ukr/Eng

Післяобрази / Powidoki / Afterimage (2016) 720p Pol | sub Ukr/Eng


Жанр: драма, біографічний
Країна: Польща



Кінокомпанія: Akson Studio, NINA, PISF
Режисер: Анджей Вайда / Andrzej Wajda
Актори: Боґуслав Лінда / Bogusław Linda, Зофія Віхлач / Zofia Wichłacz, Броніслава Замаховська / Bronisława Zamachowska, Анджей Конопка / Andrzej Konopka, Кшиштоф Печинський / Krzysztof Pieczyński, Маріуш Бонашевський / Mariusz Bonaszewski та інші.

Сюжет:
Фільм про останні чотири роки життя польського художника та теоретика мистецтва Владислава Стшемінського — одного з лідерів польського авангардизму у міжвоєнні роки.


Тривалість: 01:39:36
Якість:
Відео:
кодек:
розмір кадру: 1280 х 536
бітрейт: 4772 кб/с

Аудіо:
мова: польська
переклад: оригінал
кодек: 5.1
бітрейт: 1509 кб/с

Субтитри:
мова: українська
тип: програмні (м'які)
формат: *.srt
переклад: з польської ivan vyrvyvuho

Субтитри:
мова: англійська
тип: програмні (м'які)
формат: *.srt
Скріншоти



Звіт про файл
General
Unique ID : 229598322829340354299414963431578570719 (0xACBB074C8CD18D6DA65492A2D5108FDF)
Complete name : D:\тор\Powidoki (2016) [Pol,Sub Ukr,Eng] 720p.
Format :
Format version : Version 2
File size : 4.37 GiB
Duration : 1 h 39 min
Overall bit rate : 6 279 kb/s
Encoded date : UTC 2017-10-08 08:58:12
Writing application : v5.6.0 ('Kenya Kane') built on May 27 2012 16:44:04
Writing library : libebml v1.2.3 + v1.3.0

Video
ID : 1
Format : AVC
Format/Info : Advanced Video Codec
Format profile : [email protected]
Format settings, CABAC : Yes
Format settings, ReFrames : 5 frames
Codec ID : V_MPEG4/ISO/AVC
Duration : 1 h 39 min
Bit rate : 4 772 kb/s
Width : 1 280 pixels
Height : 536 pixels
Display aspect ratio : 2.40:1
Frame rate mode : Constant
Frame rate : 24.000 FPS
Color space : YUV
Chroma subsampling : 4:2:0
Bit depth : 8 bits
Scan type : Progressive
Bits/(Pixel*Frame) : 0.290
Stream size : 3.23 GiB (74%)
Writing library : core 148 r2744 b97ae06
Encoding settings : cabac=1 / ref=5 / deblock=1:-3:-3 / analyse=0x3:0x133 / me=umh / subme=9 / psy=1 / psy_rd=1.00:0.00 / mixed_ref=1 / me_range=16 / chroma_me=1 / trellis=2 / 8x8dct=1 / cqm=0 / deadzone=21,11 / fast_pskip=0 / chroma_qp_offset=-2 / threads=17 / lookahead_threads=1 / sliced_threads=0 / nr=0 / decimate=1 / interlaced=0 / bluray_compat=0 / constrained_intra=0 / bframes=3 / b_pyramid=2 / b_adapt=1 / b_bias=0 / direct=3 / weightb=1 / open_gop=0 / weightp=2 / keyint=250 / keyint_min=24 / scenecut=40 / intra_refresh=0 / rc_lookahead=50 / rc=2pass / mbtree=1 / bitrate=4772 / ratetol=1.0 / qcomp=0.60 / qpmin=0 / qpmax=69 / qpstep=4 / cplxblur=20.0 / qblur=0.5 / ip_ratio=1.40 / aq=1:1.00
Language : English
Default : Yes
Forced : No
Statistics Tags Issue : v8.3.0 ('Over the Horizon') 64bit 2017-05-18 08:54:35 / v5.6.0 ('Kenya Kane') built on May 27 2012 16:44:04 2017-10-08 08:58:12
FromStats_BitRate : 4767172
FromStats_Duration : 01:39:36.792000000
FromStats_FrameCount : 143443
FromStats_StreamSize : 3561550177

Audio
ID : 2
Format :
Format/Info : Digital Theater Systems
Mode : 16
Format settings, Endianness : Big
Codec ID : A_DTS
Duration : 1 h 39 min
Bit rate mode : Constant
Bit rate : 1 509 kb/s
Channel(s) : 6 channels
Channel positions : Front: L C R, Side: L R, LFE
Sampling rate : 48.0 kHz
Frame rate : 93.750 FPS (512 spf)
Bit depth : 24 bits
Compression mode : Lossy
Stream size : 1.05 GiB (24%)
Language : Polish
Default : Yes
Forced : No
Statistics Tags Issue : v8.3.0 ('Over the Horizon') 64bit 2017-05-18 08:54:35 / v5.6.0 ('Kenya Kane') built on May 27 2012 16:44:04 2017-10-08 08:58:12
FromStats_BitRate : 1508999
FromStats_Duration : 01:39:36.747000000
FromStats_FrameCount : 560320
FromStats_StreamSize : 1127363840

Text #1
ID : 3
Format : UTF-8
Codec ID : S_TEXT/UTF8
Codec ID/Info : UTF-8 Plain Text
Title : Ukr
Language : Ukrainian
Default : No
Forced : No

Text #2
ID : 4
Format : UTF-8
Codec ID : S_TEXT/UTF8
Codec ID/Info : UTF-8 Plain Text
Title : Eng
Language : English
Default : Yes
Forced : Yes
Statistics Tags Issue : v8.3.0 ('Over the Horizon') 64bit 2017-05-18 08:54:35 / v5.6.0 ('Kenya Kane') built on May 27 2012 16:44:04 2017-10-08 08:58:12
FromStats_BitRate : 44
FromStats_Duration : 01:34:27.666000000
FromStats_FrameCount : 869
FromStats_StreamSize : 31760

Menu
00:00:00.000 : en:00:00:00.000
00:03:50.917 : en:00:03:50.917
00:11:45.958 : en:00:11:45.958
00:16:41.500 : en:00:16:41.500
00:22:51.458 : en:00:22:51.458
00:30:33.042 : en:00:30:33.042
00:37:20.125 : en:00:37:20.125
00:42:58.292 : en:00:42:58.292
00:48:21.208 : en:00:48:21.208
00:55:41.042 : en:00:55:41.042
01:03:30.333 : en:01:03:30.333
01:10:02.167 : en:01:10:02.167
01:14:28.000 : en:01:14:28.000
01:21:26.667 : en:01:21:26.667
01:26:19.667 : en:01:26:19.667
01:33:47.167 : en:01:33:47.167
Джерело:
Особиста оцінка: 8 - мені сподобалося


Золотий реліз (завантажене не впливає на рейтинг)
 Трекер:    Зареєстрований   

Завантажити / скачати фільм українською



відео для новачків



 Зареєстрований:   2017-10-08 12:18
 Розмір:   4.37 GB 
 Оцінка фільму:   10/10 (Голосів: 3)
   
Cheshire Puss 
Новенький


З нами з: 30.08.17
Востаннє: 26.11.20
Повідомлень: 4

2017-12-07 22:44  
У мене завантажується з англійськими субтитрами. Як завантажити з українськими, підкажіть, будь ласка?
11FrYkT 
Модератор відео


З нами з: 20.02.11
Востаннє: 30.11.20
Повідомлень: 7038

2017-12-07 22:48  
Cheshire Puss , Вони в одному контейнері, просто переключіть їх у своєму програвачі, на жаль автор зробив форсованими англійські
Cheshire Puss 
Новенький


З нами з: 30.08.17
Востаннє: 26.11.20
Повідомлень: 4

2017-12-11 12:07  
Дуже дякую, 11FrYkT. Все вийшло.
kabanchik_v 
Частий відвідувач


З нами з: 09.05.13
Востаннє: 26.11.20
Повідомлень: 47

2020-05-31 22:37  
Дивився нині Ostatnia Rodzina, сподобалося. Подивлюся і цей
Ваш часовий пояс: GMT + 2 Години

Нова тема   Відповісти