Леккс (сезон 1, серії 1-2 з 4) / Lexx (1997) -AVC Ukr/Eng | Sub Ukr

Нові коментарі

Нова тема   Відповісти
Автор Повідомлення
Gwean 
Відео Гуртом - фільмокрай
Відео Гуртом - фільмокрай


З нами з: 28.07.12
Востаннє: 16.02.19
Повідомлень: 527

2017-10-07 21:41  
Леккс (сезон 1, серії 1-2 з 4) / Lexx (1997) -AVC Ukr/Eng | Sub Ukr



Жанр: наукова фантастика, комедія, драма
Країна: Канада, Німеччина, Великобританія



Кіностудія / кінокомпанія: Salter Street Films
Режисер: Пол Донован
Актори: Браян Дауні, Майкл МакМанус, Джефрі Хіршфілд
Сюжет:
В давнину космічна цивілізація Брунен-Джі боролася з цивілізацією Комах і здобула перемогу. За якийсь час у Всесвіті став набирати сили й завойовувати планети Його Тінь, дійшовши врешті й до війни з Брунен-Джі. В останній битві з Його Тінню всі Брунен-Джі загинули, проте однією з оракулів знищеної цивілізації було дано пророцтво, що колись правлінню Його Тіні покладе кінець останній з Брунен-Джі. Вбивши єдиного вцілілого, Його Тінь продовжив підкорення Всесвіту, впевнений, що пророцтво тепер не здійсниться.

Минає 2008 років. Його Тінь править Лігою 20000 планет, де встановлено суворі порядки і майже ніхто не наважується ослухатися волі володаря. Його Тінь в черговий раз переселяється в нове тіло, щоб продовжити своє життя, за якого буде завершено найпотужнішу зброю «Леккс».


Тривалість: ~ 1 год. 30 хв.

Якість:
Відео:
кодек:
розмір кадру: 720х540
бітрейт: ~1216 кб/с

Аудіо-1:
мова: українська
переклад: двоголосий закадровий
кодек: 2ch
бітрейт: 256 кб/с

Аудіо-2:
мова: англійська
переклад: оригінал
кодек: MP3
бітрейт: 320 кб/с

Субтитри-1:
мова: українська (повні)
переклад: Віталій Данмер
тип: програмні (м'які)
формат: *.
Перелік серії
1 - Я вклоняюся Його Тіні
2 - Наднова
Скріншоти




Звіт Info
General
Unique ID : 209916528418802932517008146320734653101 (0x9DEC73EA11A6739FAF3B4119D7118AAD)
Complete name : R:\Lexx\season 1\Lexx S01E01 ( 720x540 +MP3).
Format :
Format version : Version 4 / Version 2
File size : 1.17 GiB
Duration : 1 h 33 min
Overall bit rate : 1 795 kb/s
Encoded date : UTC 2017-10-06 17:03:21
Writing application : v7.0.0 ('Where We Going') 32bit built on Jun 9 2014 15:08:34
Writing library : libebml v1.3.0 + v1.4.1
Cover : Yes
Attachments : cover.jpg

Video
ID : 1
Format : AVC
Format/Info : Advanced Video Codec
Format profile : [email protected]
Format settings, CABAC : Yes
Format settings, ReFrames : 1 frame
Codec ID : V_MPEG4/ISO/AVC
Duration : 1 h 33 min
Bit rate : 1 216 kb/s
Width : 720 pixels
Height : 540 pixels
Display aspect ratio : 4:3
Frame rate mode : Constant
Frame rate : 29.970 (30000/1001) FPS
Color space : YUV
Chroma subsampling : 4:2:0
Bit depth : 8 bits
Scan type : Progressive
Bits/(Pixel*Frame) : 0.104
Stream size : 810 MiB (68%)
Writing library : core
Language : English
Default : Yes
Forced : Yes
Color range : Limited
Color primaries : BT.601 NTSC
Transfer characteristics : BT.709
Matrix coefficients : BT.601

Audio #1
ID : 2
Format :
Format/Info : Advanced Audio Codec
Format profile : LC
Codec ID : A_AAC
Duration : 1 h 33 min
Bit rate : 256 kb/s
Channel(s) : 2 channels
Channel positions : Front: L R
Sampling rate : 48.0 kHz
Frame rate : 46.875 FPS (1024 spf)
Compression mode : Lossy
Delay relative to video : 9 ms
Stream size : 171 MiB (14%)
Title : двоголосий закадровий [D_one та Maslinka]
Language : Ukrainian
Default : Yes
Forced : Yes

Audio #2
ID : 3
Format : MPEG Audio
Format version : Version 1
Format profile : Layer 3
Mode : Joint stereo
Codec ID : A_MPEG/L3
Codec ID/Hint : MP3
Duration : 1 h 33 min
Bit rate mode : Constant
Bit rate : 320 kb/s
Channel(s) : 2 channels
Sampling rate : 48.0 kHz
Frame rate : 41.667 FPS (1152 spf)
Compression mode : Lossy
Stream size : 213 MiB (18%)
Title : оригінальна доріжка
Writing library : LAME3.98.4
Language : English
Default : No
Forced : No

Text
ID : 4
Format :
Codec ID : S_TEXT/
Codec ID/Info : Advanced Sub Station Alpha
Duration : 1 h 30 min
Bit rate : 97 b/s
Count of elements : 848
Compression mode : Lossless
Stream size : 65.0 KiB (0%)
Title : повні [Віталій Данмер]
Language : Ukrainian
Default : No
Forced : No
Переклад та озвучення виконано:
Переклад: Віталій Данмер (Час настал)
Ролі озвучили: D_one та Maslinka

УВАГА! На озвучення цього серіалу збираються кошти.
Вартість однієї серії 450 грн. На озвучення третьої серії зібрано 0 грн з 450.
Реквізити
Картка Привату: 4149 4378 6410 8491
Вебмані:
U390532453351
R398382471557
Z171660203382
X130799522389
Bitcoin 1KsXJVaLg4DZ3RCtAH2AJ73Y3Xbu53suab


Авторський реліз (завантажувати можна без реєстрації)
 Трекер:    Зареєстрований   

Завантажити / скачати серіал українською



відео для новачків



 Зареєстрований:   2017-12-30 15:05
 Розмір:   2.34 GB 
 Оцінка серіалу:   9.8/10 (Голосів: 24)
   
Bohdan0712 
Частий відвідувач


З нами з: 10.08.10
Востаннє: 10.02.19
Повідомлень: 31

2017-10-07 22:21  
Серіал дитинства.
Здається його НТН транслював колись. В українському озвученні, до речі.

Pegass 
VIP


З нами з: 17.12.09
Востаннє: 11.02.19
Повідомлень: 881

2017-10-07 23:43  
Адміністрація, чому реліз не позначений, як авторський?
st_78 
VIP


З нами з: 18.11.16
Востаннє: 16.02.19
Повідомлень: 1135

2017-10-08 14:02  
Мене цікавить інше питання — чому не роздають?

Додано через 2 години 13 хвилин 54 секунди:


EvGaS 
Попереджень: 1
Попереджень: 1 


З нами з: 27.02.12
Востаннє: 16.02.19
Повідомлень: 5555

2017-10-08 14:15  
Pegass написано:
Адміністрація, чому реліз не позначений, як авторський?


Щиро, ваш Кеп. Wink (1)

Pegass 
VIP


З нами з: 17.12.09
Востаннє: 11.02.19
Повідомлень: 881

2017-10-08 15:43  
EvGaS написано:

Pegass написано:
Адміністрація, чому реліз не позначений, як авторський?

Щиро, ваш Кеп.

я бачив, що є знак "Очікується перевірка". Но, цей реліз Аніме, теж не перевірений, а статус має "авторський".

Додано через 17 секунд:

https://toloka.to/t80303

st_78 
VIP


З нами з: 18.11.16
Востаннє: 16.02.19
Повідомлень: 1135

2017-10-08 15:47  
Pegass написано:
Но,

Серйозно? Ви на цьому наполягаєте?

EvGaS 
Попереджень: 1
Попереджень: 1 


З нами з: 27.02.12
Востаннє: 16.02.19
Повідомлень: 5555

2017-10-08 16:40  
Pegass, критична нестача модераторів, ото й доводиться чітерити. Вантажити усі люблять. Але з активними учасниками, вочевидь, зараз скрутно в усіх розділах діяльності толоки.
Pegass 
VIP


З нами з: 17.12.09
Востаннє: 11.02.19
Повідомлень: 881

2017-10-08 18:05  
st_78 написано:

Pegass написано:
Но,

Серйозно? Ви на цьому наполягаєте?

Я із вами, не спілкувався! А, із паном EvGaS. Тому, що ви не є учасник адміністрації сайту. І я просто навів приклад. І я на сайті зареєстрований давно і завжди допомагаю, чим можу адміністрації сайту. І, якщо я щось пишу, то тільки із намірами, щоб допомогти. Буду вдячний, за будь яку критику, яка допоможе самовдосконаленню сайту і мене. ДякуюHappy

EvGaS написано:
Pegass, критична нестача модераторів, ото й доводиться чітерити. Вантажити усі люблять. Але з активними учасниками, вочевидь, зараз скрутно в усіх розділах діяльності толоки.

Хотів реліз завантажити, але так, як він провірку ще не пройшов, то почекаю, щоб лишній раз його не перезавантажувати.
Пане EvGaS, дякую за відповідьHappy

EvGaS 
Попереджень: 1
Попереджень: 1 


З нами з: 27.02.12
Востаннє: 16.02.19
Повідомлень: 5555

2017-10-08 18:07  
Pegass написано:
не є учасник адміністрації сайту

Я теж не є адміністратором чи модератором, а таким самим користувачем, як і Ви.

zavzyata 
Свій


З нами з: 16.08.08
Востаннє: 14.10.18
Повідомлень: 108

2017-11-27 22:20  
**1336
Картка Універсальна
Получатель: Перевод личных средств 205.00 ГРН Проведено
Платіж № P24A328601356A97844
Статус: Проведено
Миттєво (в окремих випадках до одного банківського дня).
Картка Універсальна
МФО 305299
ПРИВАТБАНК
205.00 ГРН
На озвучення другої серiї Леккс Пл-ник:
205.00 ГРН
Онук дуже просить продовження.
А москальською не хочу йому показувати....
Тож сподіваюсь, що не обдурите)))

Gwean 
Відео Гуртом - фільмокрай
Відео Гуртом - фільмокрай


З нами з: 28.07.12
Востаннє: 16.02.19
Повідомлень: 527

2017-11-27 22:45  
zavzyata

Завтра вже почнемо працювати над озвученням другої серії. Дякуємо за підтримку.

EvGaS 
Попереджень: 1
Попереджень: 1 


З нами з: 27.02.12
Востаннє: 16.02.19
Повідомлень: 5555

2017-11-28 08:43  
Приберіть особисту інфу краще напровсяк.
zavzyata 
Свій


З нами з: 16.08.08
Востаннє: 14.10.18
Повідомлень: 108

2017-11-29 20:01  
Дякую за швидкий відгук
Gwean 
Відео Гуртом - фільмокрай
Відео Гуртом - фільмокрай


З нами з: 28.07.12
Востаннє: 16.02.19
Повідомлень: 527

2017-12-30 15:10  
Додано 2 серію!

Усіх з прийдешніми святами!

zavzyata 
Свій


З нами з: 16.08.08
Востаннє: 14.10.18
Повідомлень: 108

2018-01-10 20:27  
Gwean
Дякую від усього серця!
Ми з онуком таки дочекалися!
Бо він мацковською категорично не схотів дивитися.
Дякую вам щиро!
Збираю гроші на подальшу озвучку

Gwean 
Відео Гуртом - фільмокрай
Відео Гуртом - фільмокрай


З нами з: 28.07.12
Востаннє: 16.02.19
Повідомлень: 527

2018-01-12 13:58  
zavzyata

Раді, що вам сподобалось)

Ваш часовий пояс: GMT + 2 Години

Нова тема   Відповісти