Той, хто біжить по лезу 2049 – 2048: Нікуди тікати / Blade Runner 2049 – 2048: Nowhere to Run (2017) 720p UKR/ENG

Нові коментарі

Нова тема   Відповісти
Автор Повідомлення
Gwean 
Відео Гуртом - фільмокрай
Відео Гуртом - фільмокрай


З нами з: 28.07.12
Востаннє: 15.01.21
Повідомлень: 939

2017-10-07 20:59  
Той, хто біжить по лезу 2049 – 2048: Нікуди тікати /
Blade Runner 2049 – 2048: Nowhere to Run (2017) 720p UKR/ENG



Жанр: фантастика, короткий метр
Країна: США



Кіностудія / кінокомпанія: Columbia Pictures, Scott Free Productions, Alcon Entertainment, Thunderbird Entertainment
Режисер: Люк Скотт
Актори: Дейв Батиста, Оріон Бен, Бйорн Фрейберґ
Сюжет:
Добряк-реплікант Сепер показує свою справжню силу, коли бачить близьких у біді.


Тривалість: 00:05:48

Якість:
Відео:
кодек:
розмір кадру: 1280x720
бітрейт: ~703 кб/с

Аудіо-1:
мова: українська
переклад: багатоголосий закадровий
кодек: 2ch
бітрейт: 128 кб/с

Аудіо-2:
мова: англійська
переклад: оригінал
кодек: 2 ch
бітрейт: 128 кб/с

Субтитри-1:
мова: українська (написи)
тип: програмні (м'які)
формат: *.

Скріншоти




Звіт Info
General
Unique ID : 206730989801240640586457227742989931685 (0x9B86F0BC078BF336B02124D5854654A5)
Complete name : R:\BLADE RUNNER 2049\BLADE RUNNER 2049 - 2048 Nowhere to Run\BLADE RUNNER 2049 - 2048 Nowhere to Run Short (2017) ( 720 ).
Format :
Format version : Version 4 / Version 2
File size : 39.8 MiB
Duration : 5 min 48 s
Overall bit rate : 957 kb/s
Encoded date : UTC 2017-10-07 18:36:19
Writing application : v7.0.0 ('Where We Going') 32bit built on Jun 9 2014 15:08:34
Writing library : libebml v1.3.0 + v1.4.1

Video
ID : 1
Format : AVC
Format/Info : Advanced Video Codec
Format profile : [email protected]
Format settings, CABAC : Yes
Format settings, ReFrames : 3 frames
Codec ID : V_MPEG4/ISO/AVC
Duration : 5 min 47 s
Bit rate : 703 kb/s
Width : 1 280 pixels
Height : 720 pixels
Display aspect ratio : 16:9
Frame rate mode : Constant
Frame rate : 23.976 (24000/1001) FPS
Color space : YUV
Chroma subsampling : 4:2:0
Bit depth : 8 bits
Scan type : Progressive
Bits/(Pixel*Frame) : 0.032
Stream size : 29.1 MiB (73%)
Language : English
Default : Yes
Forced : Yes
Color range : Limited
Color primaries : BT.709
Transfer characteristics : BT.709
Matrix coefficients : BT.709

Audio #1
ID : 2
Format :
Format/Info : Advanced Audio Codec
Format profile : LC
Codec ID : A_AAC
Duration : 5 min 48 s
Bit rate : 128 kb/s
Channel(s) : 2 channels
Channel positions : Front: L R
Sampling rate : 48.0 kHz
Frame rate : 46.875 FPS (1024 spf)
Compression mode : Lossy
Delay relative to video : 9 ms
Stream size : 5.32 MiB (13%)
Title : багатоголосий закадровий
Language : Ukrainian
Default : Yes
Forced : Yes

Audio #2
ID : 3
Format :
Format/Info : Advanced Audio Codec
Format profile : LC
Codec ID : A_AAC
Duration : 5 min 47 s
Bit rate : 126 kb/s
Channel(s) : 2 channels
Channel positions : Front: L R
Sampling rate : 44.1 kHz
Frame rate : 43.066 FPS (1024 spf)
Compression mode : Lossy
Stream size : 5.20 MiB (13%)
Title : оригінальна доріжка
Language : English
Default : No
Forced : No

Text
ID : 4
Format :
Codec ID : S_TEXT/
Codec ID/Info : Advanced Sub Station Alpha
Duration : 51 s 550 ms
Bit rate : 39 b/s
Count of elements : 4
Compression mode : Lossless
Stream size : 253 Bytes (0%)
Title : написи
Language : Ukrainian
Default : Yes
Forced : Yes
==========================================
Хронологія перегляду:

Оригінальний фільм:
Той, хто біжить по лезу / Blade Runner (1982)

Відокремлення, не відноситься до основного сюжету:
Той, хто біжить по лезу. Сльози під дощем / A Blade Runner. Tears In The Rain (2017)

Серія короткометражок, як передмова до Blade Runner 2049:
Той, хто біжить по лезу: Затемнення 2022 / Blade Runner: Black Out 2022 (2017)
Той, хто біжить по лезу 2049 – 2036: Відродження Nexus / Blade Runner 2049 – 2036: Nexus Dawn (2017)
Той, хто біжить по лезу 2049 – 2048: Нікуди тікати / Blade Runner 2049 – 2048: Nowhere to Run (2017)

Продовження оригіналу:
Той, хто біжить по лезу 2049 / Blade Runner 2049 (2017)
==========================================

Переклад та озвучення виконано:
Переклад: Maslinka
Ролі озвучили: Твій татко, D_one, Draakul, Атер Катта, Gwean, Maslinka


Авторський реліз (завантажувати можна без реєстрації)
 Трекер:    Зареєстрований   

Завантажити / скачати фільм українською



відео для новачків



 Зареєстрований:   2017-10-07 20:59
 Розмір:   40 MB 
 Оцінка фільму:   9.7/10 (Голосів: 52)
   
11FrYkT 
Модератор відео


З нами з: 20.02.11
Востаннє: 14.01.21
Повідомлень: 7101

2017-10-09 07:56  
Gwean , не забувайте описувати в характеристиках субтитри, а також вказуйте кількість каналів аудіодоріжок
eXteSy- 
VIP


З нами з: 06.04.09
Востаннє: 14.01.21
Повідомлень: 2252

2017-11-05 22:58  
В цій короткометражці, на відміну від попередньої, значно більше показаний навколишній світ. А от сам епізод не настільки ключовий, як інші.
6,5/10

varjat 
Свій


З нами з: 27.02.12
Востаннє: 13.06.20
Повідомлень: 75

2017-11-24 08:39  
Я 2 роки чекав 2049 і нерозчарувався- єдиний в наш час фільм котрий знятий не для каси ,а для фанатів.без банальщини,пафосності ,без спотвореного бачення моралі в цьому проклятому ЛЮДСЬКОМУ світі.Гори воно все синім вогнем,бо я бачу світ не стане таким як у фільмі.
НЕСТОР МАХНО 
Свій


З нами з: 28.04.10
Востаннє: 15.01.21
Повідомлень: 122

2018-02-24 21:57  
як вантажити авторський реліз????
Arch Enemy 
VIP


З нами з: 30.08.12
Востаннє: 14.01.21
Повідомлень: 1941

2018-02-26 22:13  
НЕСТОР МАХНО написано:
як вантажити авторський реліз????

Так само як і звичайний.

Косячок справжній 
VIP


З нами з: 29.02.12
Востаннє: 14.01.21
Повідомлень: 1241

2020-06-29 15:42  
eXteSy- написано:
В цій короткометражці, на відміну від попередньої, значно більше показаний навколишній світ. А от сам епізод не настільки ключовий, як інші.

Проте, є цікаві факти щодо яких можна поміркувати.

Ваш часовий пояс: GMT + 2 Години

Нова тема   Відповісти