Мій хлопець – кілер (Вбивчий бойфренд | Містер Правильний | Містер Ідеал) / Mr. Right (2015) AVC Ukr/Eng | Sub Eng

Нові коментарі

Нова тема   Відповісти
Автор Повідомлення
Anonymous 







2017-10-06 16:40  
Мій хлопець – кілер / Вбивчий бойфренд / Містер Правильний / Містер Ідеал / Mr. Right (2015) AVC Ukr/Eng | Sub Eng



Жанр: екшн, комедія, романтичний
Країна: США



Кінокомпанія: Amasia Entertainment, 3311 Productions, Circle of Confusion
Режисер: Пако Кабесас / Paco Cabezas
Актори: Сем Роквелл / Sam Rockwell, Анна Кендрік / Anna Kendrick, Тім Рот / Tim Roth, Джеймс Ренсон / James Ransone, Енсон Маунт / Anson Mount, Майкл Еклунд / Michael Eklund, Роберт Діггс (RZA), Кеті Нехра / Katie Nehra, Джейден Кейн / Jaiden Kaine, Дуґлас М. Ґріффін / Douglas M. Griffin та інші

Сюжет:
Марта відчайдушно намагається знайти свою любов, але з хлопцями їй зовсім не щастить. Та коли дівчина зустрічає Френсіса, вона впевнена що кращого хлопця годі й шукати. Уважний, романтичний і сексуальний Френсіс насправді виявляється кілером, який вирішив зав'язати зі своєю професією. Але чи так це легко, як йому хотілося б? Френсіс і Марта нерозлучні, тож ховатися від охочих вбити екс-кілера їм доведеться вдвох.
Офіційні українські трейлери:




Рейтинг MPAA: R - особам до 17 років обов'язкова присутність батьків або дорослого опікуна
Вікова категорія: 16+
Тривалість: 01:35:29
Якість: AVC
Відео:
кодек:
розмір кадру: 1108 x 464
бітрейт: 2372 кб/с

Аудіо:
мова: українська
переклад: багатоголосий закадровий
кодек: 2.0 (стерео)
бітрейт: 192 кб/с

Аудіо # 2:
мова: англійська
переклад: оригінал
кодек: 5.1
бітрейт: 448 кб/с

Субтитри # 1-3:
мова: англійська (повні, SDH, SDH кольорові)
тип: програмні (м'які)
формат: srt

Збережено оригінальні розділи, як на Blu-ray
Info
Код:
Complete name               : Mr. Right (2015) [Ukr,Eng sub.Eng] AVC [Hurtom].
Format                      :
Format version              : Version 4 / Version 2
File size                   : 2.01 GiB
Duration                    : 1 h 35 min
Overall bit rate            : 3 012 kb/s
Cover                       : Yes
Attachments                 : cover.jpg

Video
ID                          : 1
Format                      : AVC
Format/Info                 : Advanced Video Codec
Format profile              : [email protected]
Format settings             : CABAC / 10 Ref Frames
Format settings, CABAC      : Yes
Format settings, RefFrames  : 10 frames
Codec ID                    : V_MPEG4/ISO/AVC
Duration                    : 1 h 35 min
Bit rate                    : 2 372 kb/s
Width                       : 1 108 pixels
Height                      : 464 pixels
Display aspect ratio        : 2.40:1
Frame rate mode             : Constant
Frame rate                  : 23.976 FPS
Color space                 : YUV
Chroma subsampling          : 4:2:0
Bit depth                   : 8 bits
Scan type                   : Progressive
Bits/(Pixel*Frame)          : 0.192
Stream size                 : 1.58 GiB (79%)
Title                       : Мій хлопець – кілер / Вбивчий бойфренд / Містер Правильний / Містер Ідеал / Mr. Right (2015) AVC [Hellywood-potroks]
Writing library             : core 146 r2538 121396c
Encoding settings           : cabac=1 / ref=10 / deblock=1:-2:-2 / analyse=0x3:0x113 / me=umh / subme=11 / psy=1 / psy_rd=1.00:0.05 / mixed_ref=1 / me_range=48 / chroma_me=1 / trellis=2 / 8x8dct=1 / cqm=0 / deadzone=21,11 / fast_pskip=0 / chroma_qp_offset=-3 / threads=9 / lookahead_threads=2 / sliced_threads=0 / nr=0 / decimate=0 / interlaced=0 / bluray_compat=0 / constrained_intra=0 / bframes=11 / b_pyramid=2 / b_adapt=2 / b_bias=0 / direct=3 / weightb=1 / open_gop=0 / weightp=2 / keyint=240 / keyint_min=23 / scenecut=40 / intra_refresh=0 / rc_lookahead=60 / rc=2pass / mbtree=0 / bitrate=2372 / ratetol=1.0 / qcomp=0.70 / qpmin=0 / qpmax=69 / qpstep=4 / cplxblur=20.0 / qblur=0.5 / vbv_maxrate=14000 / vbv_bufsize=14000 / nal_hrd=none / filler=0 / ip_ratio=1.40 / pb_ratio=1.30 / aq=1:0.80
Language                    : English
Default                     : Yes
Forced                      : No

Audio #1
ID                          : 2
Format                      : AC-3
Format/Info                 : Audio Coding 3
Format settings, Endianness : Big
Codec ID                    : A_AC3
Duration                    : 1 h 35 min
Bit rate mode               : Constant
Bit rate                    : 192 kb/s
Channel(s)                  : 2 channels
Channel positions           : Front: L R
Sampling rate               : 48.0 kHz
Frame rate                  : 31.250 FPS (1536 SPF)
Bit depth                   : 16 bits
Compression mode            : Lossy
Stream size                 : 131 MiB (6%)
Title                       : MVO [ICTV] 2.0 [stereo] 192 Kbps [Hurtom-Gelios, slavik_v_z]
Language                    : Ukrainian
Service kind                : Complete Main
Default                     : Yes
Forced                      : Yes

Audio #2
ID                          : 3
Format                      : AC-3
Format/Info                 : Audio Coding 3
Format settings, Endianness : Big
Codec ID                    : A_AC3
Duration                    : 1 h 35 min
Bit rate mode               : Constant
Bit rate                    : 448 kb/s
Channel(s)                  : 6 channels
Channel positions           : Front: L C R, Side: L R, LFE
Sampling rate               : 48.0 kHz
Frame rate                  : 31.250 FPS (1536 SPF)
Bit depth                   : 16 bits
Compression mode            : Lossy
Stream size                 : 306 MiB (15%)
Title                       : Original 5.1 448 kbps
Language                    : English
Service kind                : Complete Main
Default                     : No
Forced                      : No

Text #1
ID                          : 4
Format                      : UTF-8
Codec ID                    : S_TEXT/UTF8
Codec ID/Info               : UTF-8 Plain Text
Duration                    : 1 h 32 min
Bit rate                    : 81 b/s
Count of elements           : 1729
Stream size                 : 55.3 KiB (0%)
Title                       : Eng Full
Language                    : English
Default                     : No
Forced                      : No

Text #2
ID                          : 5
Format                      : UTF-8
Codec ID                    : S_TEXT/UTF8
Codec ID/Info               : UTF-8 Plain Text
Duration                    : 1 h 32 min
Bit rate                    : 87 b/s
Count of elements           : 1869
Stream size                 : 59.3 KiB (0%)
Title                       : Eng SDH
Language                    : English
Default                     : No
Forced                      : No

Text #3
ID                          : 6
Format                      : UTF-8
Codec ID                    : S_TEXT/UTF8
Codec ID/Info               : UTF-8 Plain Text
Duration                    : 1 h 35 min
Bit rate                    : 107 b/s
Count of elements           : 1870
Stream size                 : 75.0 KiB (0%)
Title                       : Eng SDH-Colored
Language                    : English
Default                     : No
Forced                      : No

Menu
00:00:00.000                : en:Chapter 01
00:04:37.860                : en:Chapter 02
00:08:25.713                : en:Chapter 03
00:11:40.741                : en:Chapter 04
00:15:48.906                : en:Chapter 05
00:18:59.638                : en:Chapter 06
00:23:35.247                : en:Chapter 07
00:27:29.481                : en:Chapter 08
00:33:51.446                : en:Chapter 09
00:39:11.766                : en:Chapter 10
00:43:59.970                : en:Chapter 11
00:46:09.349                : en:Chapter 12
00:51:56.530                : en:Chapter 13
00:56:39.604                : en:Chapter 14
00:59:27.814                : en:Chapter 15
01:04:24.694                : en:Chapter 16
01:10:16.629                : en:Chapter 17
01:16:40.762                : en:Chapter 18
01:22:23.813                : en:Chapter 19
01:28:02.819                : en:Chapter 20


Джерело: &
Подяка slavik_v_z та Gelios'у за український звук та постер.


 Трекер:    Зареєстрований   

Завантажити / скачати фільм українською



відео для новачків



 Зареєстрований:   2017-10-06 17:12
 Розмір:   2.01 GB 
 Оцінка фільму:   6.4/10 (Голосів: 30)
   
ЕНЕЙ.12 
VIP


З нами з: 18.11.13
Востаннє: 13.12.17
Повідомлень: 803

2017-10-06 17:29  
Дякую за оперативність, буду вантажити!
ЕНЕЙ.12 
VIP


З нами з: 18.11.13
Востаннє: 13.12.17
Повідомлень: 803

2017-10-11 22:45  
Переглянув, скажу так-собі, ніби й непогано (в порівнянні з тими ж голівуд-комедіями), але щоб сказати гарне чи захопливе не можу..., одноразовий фільм, який не дратував, але й не насмішив як повинна б комедія. Можливо так, бо тут, заявлено аж три жанри))) Можна додати ще й жанр - чорна комедія, адже не всім весело, коли когось вбивають, та ще й так "вигадливо", та й романтика тут також на тлі місива, особливо в кінці.
А от виконавиця ролі ГГ, тут на диво "вписалася", і навіть більш-менш сподобалася, хоча ця акторка, мені якось не подобається.

Пи.Си.: Як видно, майже з 400 завантажень, то не мені одному "потрібен" був AVC-реліз)

Ваш часовий пояс: GMT + 2 Години

Нова тема   Відповісти