Зупинись і гори (Сезон 4) / Halt and Catch Fire (Season 4) (2017) 1080p Ukr/Eng | Sub Eng

Нові коментарі

Нова тема   Відповісти
Автор Повідомлення
dilnix 
Свій


З нами з: 22.07.12
Востаннє: 15.12.17
Повідомлень: 124

2017-10-06 12:37  
Зупинись і гори (Сезон 4) / Halt and Catch Fire (Season 4) (2017) 1080p Ukr/Eng | Sub Eng


Жанр: драма
Країна: США



Кінокомпанія / телеканал: AMC Studios
Творці серіали: Крістофер Кентвелл, Крістофер Роджерс
Актори: Лі Пейс, Скут МакНейрі, Макензі Дейвіс, Кері Біше, Тобі Гас та інші

Сюжет:
Дія серіалу відбувається у вісімдесяті. Він розповідає про бум персональних комп’ютерів з погляду трьох персонажів – новатора, інженера і вундеркінда, чиї інновації кидають виклик тогочасним корпоративним велетням. Їхні особисті та професійні стосунки переживуть випробування жадобою та амбіціями і сформують нову культуру техаської Кремнієвої прерії.
Перелік серій
Halt and Catch Fire. Season 4, Episode 01. So It Goes
Halt and Catch Fire. Season 4, Episode 02. Signal to Noise
Halt and Catch Fire. Season 4, Episode 03. Miscellaneous
Halt and Catch Fire. Season 4, Episode 04. Tonya and Nancy
Halt and Catch Fire. Season 4, Episode 05. Nowhere Man
Halt and Catch Fire. Season 4, Episode 06. A Connection Is Made
Halt and Catch Fire. Season 4, Episode 07. Who Needs a Guy
Halt and Catch Fire. Season 4, Episode 08. Goodwill
Halt and Catch Fire. Season 4, Episode 09. Search
Halt and Catch Fire. Season 4, Episode 10. Ten of Swords
Тривалість: 1 серія: ~44 хв.
Якість: 1080p [Amazon]

Відео:
кодек:
розмір кадру: 1920 х 1080
бітрейт: ~13600 кб/с

Аудіо # 1:
мова: українська
переклад: багатоголосий закадровий, ТакТребаПродакшн на замовлення телеканалу
кодек: 2.0
бітрейт: 192 кб/с

Аудіо # 1:
мова: англійська
переклад: оригінал
кодек: E- 5.1
бітрейт: 640 кб/с

Субтитри:
мова: англійська
тип: програмні (м'які)
формат: .srt
Скріншоти
Info
General
Unique ID : 225123423640203496023078356047737917008 (0xA95D31BC25F2477852D73B8CD2680E50)
Complete name : Halt.and.Catch.Fire.S04E01.So.It.Goes.1080p.AMZN..Ukr[amc].Eng.
Format :
Format version : Version 4 / Version 2
File size : 4.46 GiB
Duration : 44 min 17 s
Overall bit rate mode : Variable
Overall bit rate : 14.4 Mb/s
Encoded date : UTC 2017-10-06 09:33:07
Writing application : mkvmerge v15.0.0 ('Duel with the Devil') 64-bit
Writing library : libebml v1.3.5 + libmatroska v1.4.7

Video
ID : 1
Format : AVC
Format/Info : Advanced Video Codec
Format profile : [email protected]
Format settings : CABAC / 4 Ref Frames
Format settings, CABAC : Yes
Format settings, RefFrames : 4 frames
Codec ID : V_MPEG4/ISO/AVC
Duration : 44 min 17 s
Bit rate mode : Variable
Bit rate : 13.6 Mb/s
Maximum bit rate : 15.0 Mb/s
Width : 1 920 pixels
Height : 1 080 pixels
Display aspect ratio : 16:9
Frame rate mode : Constant
Frame rate : 23.976 (24000/1001) FPS
Color space : YUV
Chroma subsampling : 4:2:0
Bit depth : 8 bits
Scan type : Progressive
Bits/(Pixel*Frame) : 0.273
Stream size : 4.20 GiB (94%)
Language : English
Default : Yes
Forced : No
Color range : Limited
Color primaries : BT.709
Transfer characteristics : BT.709
Matrix coefficients : BT.709

Audio #1
ID : 2
Format : AC-3
Format/Info : Audio Coding 3
Format settings, Endianness : Big
Codec ID : A_AC3
Duration : 44 min 17 s
Bit rate mode : Constant
Bit rate : 192 kb/s
Channel(s) : 2 channels
Channel positions : Front: L R
Sampling rate : 48.0 kHz
Frame rate : 31.250 FPS (1536 SPF)
Bit depth : 16 bits
Compression mode : Lossy
Stream size : 60.8 MiB (1%)
Language : Ukrainian
Service kind : Complete Main
Default : Yes
Forced : No

Audio #2
ID : 3
Format : E-AC-3
Format/Info : Enhanced Audio Coding 3
Format settings, Endianness : Big
Codec ID : A_EAC3
Duration : 44 min 17 s
Bit rate mode : Constant
Bit rate : 640 kb/s
Channel(s) : 6 channels
Channel positions : Front: L C R, Side: L R, LFE
Sampling rate : 48.0 kHz
Frame rate : 187.500 FPS (256 SPF)
Compression mode : Lossy
Stream size : 203 MiB (4%)
Language : English
Service kind : Complete Main
Default : No
Forced : No

Text
ID : 4
Format : UTF-8
Codec ID : S_TEXT/UTF8
Codec ID/Info : UTF-8 Plain Text
Duration : 44 min 8 s
Bit rate : 73 b/s
Count of elements : 878
Stream size : 23.7 KiB (0%)
Language : English
Default : No
Forced : No
Джерело:
Підготовка локалізованого постера - власна.
Всі синхронізовані аудіо дорожки лежать тут: https://mega.nz/#F!l0QC0LRZ!lWZILpskjK5yUmrB8n1L0g!t8w1gSJJ



Бронзовий реліз (на рейтинг впливає 75% завантаженого)
 Трекер:    Зареєстрований   

Завантажити / скачати серіал українською



відео для новачків



 Зареєстрований:   2017-12-08 08:09
 Розмір:   47.01 GB 
 Оцінка серіалу:   9.5/10 (Голосів: 19)
   
dilnix 
Свій


З нами з: 22.07.12
Востаннє: 15.12.17
Повідомлень: 124

2017-10-06 12:43  
Локалізований постер зроблю пізніше. Нині тимчасовий.
ser_rocko 
Свій


З нами з: 02.09.08
Востаннє: 15.12.17
Повідомлень: 140

2017-10-06 22:32  
Нарешті.
zgdsqs1grs81gs8erf 
Новенький


З нами з: 15.03.17
Востаннє: 30.10.17
Повідомлень: 9

2017-10-08 11:32  
Дуже класний серіал. Коли будуть нові серії з перекладом ??
dilnix 
Свій


З нами з: 22.07.12
Востаннє: 15.12.17
Повідомлень: 124

2017-10-08 14:58  
zgdsqs1grs81gs8erf написано:
Дуже класний серіал. Коли будуть нові серії з перекладом ??

По мірі виходу серій на українській версії каналу AMC від Воля.

[Captain] 
VIP


З нами з: 18.02.12
Востаннє: 15.12.17
Повідомлень: 1871

2017-10-10 16:32  
серіал з кожним сезоном усе краще. добре, що закінчують, не люблю задовгі історії. та з такою кількістю глядачів дивно, що не прикрили після першого сезону. певно для іміджу каналу
dilnix 
Свій


З нами з: 22.07.12
Востаннє: 15.12.17
Повідомлень: 124

2017-10-16 01:03  
Торрент оновлено!
Додано серію №2.

dilnix 
Свій


З нами з: 22.07.12
Востаннє: 15.12.17
Повідомлень: 124

2017-10-20 13:41  
Торрент оновлено!
Додано серію №3.

Kovex 
Відео Гуртом - підтримка та поширення
Відео Гуртом - підтримка та поширення


З нами з: 01.09.09
Востаннє: 15.12.17
Повідомлень: 436

2017-10-30 09:23  
Коли очікувати наступні серії?
dilnix 
Свій


З нами з: 22.07.12
Востаннє: 15.12.17
Повідомлень: 124

2017-10-30 09:32  
Kovex написано:
Коли очікувати наступні серії?

Через 1-2 години

Kovex 
Відео Гуртом - підтримка та поширення
Відео Гуртом - підтримка та поширення


З нами з: 01.09.09
Востаннє: 15.12.17
Повідомлень: 436

2017-10-30 09:33  
Дякую Happy
dilnix 
Свій


З нами з: 22.07.12
Востаннє: 15.12.17
Повідомлень: 124

2017-10-30 10:04  
Додану нову серію №4. Приємного перегляду!
Kovex 
Відео Гуртом - підтримка та поширення
Відео Гуртом - підтримка та поширення


З нами з: 01.09.09
Востаннє: 15.12.17
Повідомлень: 436

2017-10-30 10:05  
dilnix написано:
Додану нову серію №4. Приємного перегляду!

Супер, вантажу та лишаюсь роздавати.

dilnix 
Свій


З нами з: 22.07.12
Востаннє: 15.12.17
Повідомлень: 124

2017-10-30 11:32  
Підготував локалізований постер. З радістю використовуйте в своїх релізах =)
[Captain] 
VIP


З нами з: 18.02.12
Востаннє: 15.12.17
Повідомлень: 1871

2017-10-30 15:04  
звісно, я дивився не все в цьому році, але, на мою думку, цей сезон та третій сезон Пана Робота (принаймні поки) це найкраще, що було на американському тб у 2017
dilnix 
Свій


З нами з: 22.07.12
Востаннє: 15.12.17
Повідомлень: 124

2017-10-30 15:13  
[Captain] написано:
звісно, я дивився не все в цьому році, але, на мою думку, цей сезон та третій сезон Пана Робота (принаймні поки) це найкраще, що було на американському тб у 2017

Згоден з вами на всі 100 =)

dilnix 
Свій


З нами з: 22.07.12
Востаннє: 15.12.17
Повідомлень: 124

2017-11-03 12:25  
Торрент оновлено!
Додано серію №5.

dilnix 
Свій


З нами з: 22.07.12
Востаннє: 15.12.17
Повідомлень: 124

2017-11-10 14:09  
Торрент оновлено!
Додано серію №6.

dilnix 
Свій


З нами з: 22.07.12
Востаннє: 15.12.17
Повідомлень: 124

2017-11-19 01:11  
Торрент оновлено!
Додано серію №7.

_sergius 
Свій


З нами з: 26.03.11
Востаннє: 15.12.17
Повідомлень: 73

2017-11-19 21:26  
[Captain] написано:
серіал з кожним сезоном усе краще. добре, що закінчують, не люблю задовгі історії. та з такою кількістю глядачів дивно, що не прикрили після першого сезону. певно для іміджу каналу

То я так розумію, це заключний сезон?

[Captain] 
VIP


З нами з: 18.02.12
Востаннє: 15.12.17
Повідомлень: 1871

2017-11-26 00:26  
_sergius
так

dilnix 
Свій


З нами з: 22.07.12
Востаннє: 15.12.17
Повідомлень: 124

2017-11-26 01:34  
Торрент оновлено!
Додано серію №8.

dilnix 
Свій


З нами з: 22.07.12
Востаннє: 15.12.17
Повідомлень: 124

2017-12-01 17:42  
Торрент оновлено!
Додано серію №9.

dilnix 
Свій


З нами з: 22.07.12
Востаннє: 15.12.17
Повідомлень: 124

2017-12-08 08:11  
Торрент оновлено!
Додано фінальну серію №10.

УВАГА! Це кінець серіалу! Більше не буде =)

K2 
Поважний учасник


З нами з: 02.11.08
Востаннє: 15.12.17
Повідомлень: 203

2017-12-08 10:29  
Зовсім розчарований цим сезоном.
leicheman 
Відео Гуртом - підтримка та поширення
Відео Гуртом - підтримка та поширення


З нами з: 03.07.14
Востаннє: 16.12.17
Повідомлень: 1471

2017-12-08 13:46  
dilnix написано:
фінальну серію №10.

Напишіть, що це ще фінал серіалу. Щоб люди на нові сезони не чекали.

Ваш часовий пояс: GMT + 2 Години

Нова тема   Відповісти