Той, хто біжить по лезу 2049 – 2036: Відродження Nexus / Blade Runner 2049 – 2036: Nexus Dawn (2017) 720p UKR/ENG

Нові коментарі

Нова тема   Відповісти
Автор Повідомлення
Gwean 
Відео Гуртом - фільмокрай
Відео Гуртом - фільмокрай


З нами з: 28.07.12
Востаннє: 23.01.21
Повідомлень: 946

2017-10-06 11:00  
Той, хто біжить по лезу 2049 – 2036: Відродження Nexus /
Blade Runner 2049 – 2036: Nexus Dawn (2017) 720p UKR/ENG



Жанр: фантастика, короткий метр
Країна: США



Кіностудія / кінокомпанія: Columbia Pictures, Scott Free Productions, Alcon Entertainment, Thunderbird Entertainment
Режисер: Люк Скотт
Актори: Нед Денегі, Джаред Лето, Аня Марсон, Бенедікт Вонг
Сюжет:
Волес представляє нову, вдосконалену, версію реплікантів Nexus 9, намагаючись добитися скасування заборони на виробництво реплікантів.


Тривалість: 00:06:30

Якість:
Відео:
кодек:
розмір кадру: 1280x720
бітрейт: ~403 кб/с

Аудіо-1:
мова: українська
переклад: багатоголосий закадровий
кодек:
бітрейт: 128 кб/с

Аудіо-2:
мова: англійська
переклад: оригінал
кодек:
бітрейт: 128 кб/с

Скріншоти




Звіт Info
General
Unique ID : 216084379240737437732868524860229122378 (0xA29056703105EE4FA40E2B04A69D794A)
Complete name : R:\BLADE RUNNER 2049\BLADE RUNNER 2049 - 2036_ Nexus Dawn\BLADE RUNNER 2049 - 2036_ Nexus Dawn Short (2017) ( 720 ).
Format :
Format version : Version 4 / Version 2
File size : 30.8 MiB
Duration : 6 min 31 s
Overall bit rate : 660 kb/s
Encoded date : UTC 2017-10-05 21:12:35
Writing application : v7.0.0 ('Where We Going') 32bit built on Jun 9 2014 15:08:34
Writing library : libebml v1.3.0 + v1.4.1
Cover : Yes
Attachments : cover.jpg

Video
ID : 1
Format : AVC
Format/Info : Advanced Video Codec
Format profile : [email protected]
Format settings, CABAC : Yes
Format settings, ReFrames : 3 frames
Codec ID : V_MPEG4/ISO/AVC
Duration : 6 min 30 s
Bit rate : 403 kb/s
Width : 1 280 pixels
Height : 720 pixels
Display aspect ratio : 16:9
Frame rate mode : Constant
Frame rate : 23.976 (24000/1001) FPS
Color space : YUV
Chroma subsampling : 4:2:0
Bit depth : 8 bits
Scan type : Progressive
Bits/(Pixel*Frame) : 0.018
Stream size : 18.8 MiB (61%)
Language : English
Default : Yes
Forced : Yes
Color range : Limited
Color primaries : BT.709
Transfer characteristics : BT.709
Matrix coefficients : BT.709

Audio #1
ID : 2
Format :
Format/Info : Advanced Audio Codec
Format profile : LC
Codec ID : A_AAC
Duration : 6 min 31 s
Bit rate : 128 kb/s
Channel(s) : 2 channels
Channel positions : Front: L R
Sampling rate : 48.0 kHz
Frame rate : 46.875 FPS (1024 spf)
Compression mode : Lossy
Delay relative to video : 9 ms
Stream size : 5.97 MiB (19%)
Title : багатоголосий закадровий
Language : Ukrainian
Default : Yes
Forced : Yes

Audio #2
ID : 3
Format :
Format/Info : Advanced Audio Codec
Format profile : LC
Codec ID : A_AAC
Duration : 6 min 30 s
Bit rate : 126 kb/s
Channel(s) : 2 channels
Channel positions : Front: L R
Sampling rate : 44.1 kHz
Frame rate : 43.066 FPS (1024 spf)
Compression mode : Lossy
Stream size : 5.84 MiB (19%)
Title : оригінальна доріжка
Language : English
Default : No
Forced : No

Text
ID : 4
Format :
Codec ID : S_TEXT/
Codec ID/Info : Advanced Sub Station Alpha
Duration : 7 s 160 ms
Bit rate : 204 b/s
Count of elements : 3
Compression mode : Lossless
Stream size : 183 Bytes (0%)
Title : написи
Language : Ukrainian
Default : Yes
Forced : Yes

Menu
00:00:00.054 : en:00:00:00.054
==========================================
Хронологія перегляду:

Оригінальний фільм:
Той, хто біжить по лезу / Blade Runner (1982)

Відокремлення, не відноситься до основного сюжету:
Той, хто біжить по лезу. Сльози під дощем / A Blade Runner. Tears In The Rain (2017)

Серія короткометражок, як передмова до Blade Runner 2049:
Той, хто біжить по лезу: Затемнення 2022 / Blade Runner: Black Out 2022 (2017)
Той, хто біжить по лезу 2049 – 2036: Відродження Nexus / Blade Runner 2049 – 2036: Nexus Dawn (2017)
Той, хто біжить по лезу 2049 – 2048: Нікуди тікати / Blade Runner 2049 – 2048: Nowhere to Run (2017)

Продовження оригіналу:
Той, хто біжить по лезу 2049 / Blade Runner 2049 (2017)
==========================================

Переклад та озвучення виконано:
Переклад: Maslinka
Ролі озвучили: Твій татко, Макс Фрівінґ, Draakul, Gwean, Maslinka


Авторський реліз (завантажувати можна без реєстрації)
 Трекер:    Зареєстрований   

Завантажити / скачати фільм українською



відео для новачків



 Зареєстрований:   2017-10-06 11:00
 Розмір:   31 MB 
 Оцінка фільму:   8.3/10 (Голосів: 60)
   
alienware 
Свій


З нами з: 20.12.09
Востаннє: 23.01.21
Повідомлень: 75

2017-10-06 14:31  
Це якась передісторія до фільму, чи як?
Arch Enemy 
VIP


З нами з: 30.08.12
Востаннє: 20.01.21
Повідомлень: 1943

2017-10-06 19:25  
alienware написано:
Це якась передісторія до фільму, чи як?

так, це ключові події, що відбувалися між 2019 та 2049

eXteSy- 
VIP


З нами з: 06.04.09
Востаннє: 23.01.21
Повідомлень: 2259

2017-11-05 22:50  
Непогана замальовка, яка дає поштовх до наступних подій. Але надто коротка, щоб перерости у щось більше.
6,5/10

Косячок справжній 
VIP


З нами з: 29.02.12
Востаннє: 18.01.21
Повідомлень: 1241

2020-06-29 15:40  
eXteSy-
Десь так і є.

Ваш часовий пояс: GMT + 2 Години

Нова тема   Відповісти