На драйві / Baby Driver (2017) Remux 1080p Ukr/Eng | Sub Ukr/Eng

Нові коментарі

Нова тема   Відповісти
Автор Повідомлення
Anonymous 







2017-10-05 03:31  
На драйві / Baby Driver (2017) Remux Ukr/Eng | Sub Ukr/Eng

Альтернативний постер



Жанр: трилер, бойовик, кримінальний
Країна: Велика Британія, США



Кінокомпанія: Big Talk Productions, Double Negative, Media Rights Capital, TriStar Pictures, Working Title Films
Режисер: Едгар Райт / Edgar Wright
Актори: Енсел Елґорт / Ansel Elgort, Кевін Спейсі / Kevin Spacey, Лілі Джеймс / Lily James, Ейса Гонсалес / Eiza González, Джон Гемм / Jon Hamm, Джеймі Фокс / Jamie Foxx, Джон Бернтал / Jon Bernthal, Вілбур Фіцджеральд / Wilbur Fitzgerald, Флі / Flea та інші

Сюжет:
Молодий і талановитий гонщик на прізвисько Бейбі обожнює небезпеку, швидкість і стильну музику. Усе його життя - це суцільні погоні і перестрілки, адже він працює водієм, який допомагає бандитам втекти з місця злочину. Якщо він за кермом – у поліції немає шансів. Але Бейбі зустрічає дівчину і закохується... Він хоче вийти з гри, але спочатку йому потрібно виконати ще одне завдання, яке цілком може виявитися останнім в його житті...
Офіційні українські трейлери:





Рейтинг MPAA: R - особам до 17 років обов'язкова присутність батьків або дорослого опікуна
Вікова категорія: 16+

Тривалість: 1:52:39
Якість: Remux
Відео:
кодек:
розмір кадру: 1920 х 1080
бітрейт: 24,9 Мб/с

Аудіо # 1:
мова: українська
переклад: професійний дубльований | студія LeDoyen
кодек: 2.0 [Dolby Digital]
бітрейт: 192 кб/с

Аудіо # 2:
мова: англійська
переклад: оригінал
кодек: -HD MA 5.1
бітрейт: 2352 кб/с

Аудіо # 3-4:
мова: англійська
переклад: коментарі режисера / режисера з оператором
кодек: 2.0
бітрейт: 192 кб/с

Субтитри # 1-2:
мова: українська (форсовані, повні)
тип: пререндерні
формат: *.pgs

Субтитри # 3-4:
мова: англійська (повні, SDH)
тип: пререндерні
формат: *.pgs

Збережено оригінальні розділи, як на Blu-ray
Info
Код:
Complete name               : Baby Driver (2017) [Ukr,Eng sub.Ukr,Eng] Remux 1080p [Hurtom].
Format                      :
Format version              : Version 4 / Version 2
File size                   : 22.0 GiB
Duration                    : 1 h 52 min
Overall bit rate mode       : Variable
Overall bit rate            : 27.9 Mb/s
Cover                       : Yes
Attachments                 : cover.jpg

Video
ID                          : 1
Format                      : AVC
Format/Info                 : Advanced Video Codec
Format profile              : [email protected]
Format settings             : CABAC / 2 Ref Frames
Format settings, CABAC      : Yes
Format settings, RefFrames  : 2 frames
Format settings, GOP        : M=1, N=10
Codec ID                    : V_MPEG4/ISO/AVC
Duration                    : 1 h 52 min
Bit rate mode               : Variable
Bit rate                    : 24.9 Mb/s
Width                       : 1 920 pixels
Height                      : 1 080 pixels
Display aspect ratio        : 16:9
Frame rate mode             : Constant
Frame rate                  : 23.976 (24000/1001) FPS
Color space                 : YUV
Chroma subsampling          : 4:2:0
Bit depth                   : 8 bits
Scan type                   : Progressive
Bits/(Pixel*Frame)          : 0.501
Stream size                 : 19.6 GiB (89%)
Title                       : На драйві / Baby Driver (2017) Remux 1080p Ukr/Eng [BlueBird]
Language                    : English
Default                     : Yes
Forced                      : No

Audio #1
ID                          : 2
Format                      : AC-3
Format/Info                 : Audio Coding 3
Mode                        : Dolby Digital
Format settings, Endianness : Big
Codec ID                    : A_AC3
Duration                    : 1 h 52 min
Bit rate mode               : Constant
Bit rate                    : 192 kb/s
Channel(s)                  : 2 channels
Channel positions           : Front: L R
Sampling rate               : 48.0 kHz
Frame rate                  : 31.250 FPS (1536 SPF)
Bit depth                   : 16 bits
Compression mode            : Lossy
Stream size                 : 155 MiB (1%)
Title                       : Dub [LeDoyen, iTunes] 2.0 [Dolby Digital] 192 Kbps
Language                    : Ukrainian
Service kind                : Complete Main
Default                     : Yes
Forced                      : Yes

Audio #2
ID                          : 3
Format                      :
Format/Info                 : Digital Theater Systems
Format profile              : MA / Core
Mode                        : 16
Format settings, Endianness : Big
Codec ID                    : A_DTS
Duration                    : 1 h 52 min
Bit rate mode               : Variable / Constant
Bit rate                    : 2 352 kb/s / 1 509 kb/s
Channel(s)                  : 6 channels
Channel positions           : Front: L C R, Side: L R, LFE
Sampling rate               : 48.0 kHz
Frame rate                  : 93.750 FPS (512 SPF)
Bit depth                   : 16 bits
Compression mode            : Lossless / Lossy
Stream size                 : 1.85 GiB (8%)
Title                       : Original, -HD MA 5.1 2352 Kbps
Language                    : English
Default                     : No
Forced                      : No

Audio #3
ID                          : 4
Format                      : AC-3
Format/Info                 : Audio Coding 3
Format settings, Endianness : Big
Codec ID                    : A_AC3
Duration                    : 1 h 52 min
Bit rate mode               : Constant
Bit rate                    : 192 kb/s
Channel(s)                  : 2 channels
Channel positions           : Front: L R
Sampling rate               : 48.0 kHz
Frame rate                  : 31.250 FPS (1536 SPF)
Bit depth                   : 16 bits
Compression mode            : Lossy
Stream size                 : 155 MiB (1%)
Title                       : Commentary by director Edgar Wright
Language                    : English
Service kind                : Complete Main
Default                     : No
Forced                      : No

Audio #4
ID                          : 5
Format                      : AC-3
Format/Info                 : Audio Coding 3
Format settings, Endianness : Big
Codec ID                    : A_AC3
Duration                    : 1 h 52 min
Bit rate mode               : Constant
Bit rate                    : 192 kb/s
Channel(s)                  : 2 channels
Channel positions           : Front: L R
Sampling rate               : 48.0 kHz
Frame rate                  : 31.250 FPS (1536 SPF)
Bit depth                   : 16 bits
Compression mode            : Lossy
Stream size                 : 155 MiB (1%)
Title                       : Commentary by Edgar Wright & Bill Pope
Language                    : English
Service kind                : Complete Main
Default                     : No
Forced                      : No

Text #1
ID                          : 6
Format                      : PGS
Muxing mode                 : zlib
Codec ID                    : S_HDMV/PGS
Codec ID/Info               : Picture based subtitle format used on BDs/HD-DVDs
Duration                    : 1 h 51 min
Bit rate                    : 5 379 b/s
Count of elements           : 454
Stream size                 : 4.30 MiB (0%)
Title                       : Ukr Forced
Language                    : Ukrainian
Default                     : Yes
Forced                      : Yes

Text #2
ID                          : 7
Format                      : PGS
Muxing mode                 : zlib
Codec ID                    : S_HDMV/PGS
Codec ID/Info               : Picture based subtitle format used on BDs/HD-DVDs
Duration                    : 1 h 51 min
Bit rate                    : 51.5 kb/s
Count of elements           : 3208
Stream size                 : 41.1 MiB (0%)
Title                       : Ukr Full
Language                    : Ukrainian
Default                     : No
Forced                      : No

Text #3
ID                          : 8
Format                      : PGS
Muxing mode                 : zlib
Codec ID                    : S_HDMV/PGS
Codec ID/Info               : Picture based subtitle format used on BDs/HD-DVDs
Duration                    : 1 h 49 min
Bit rate                    : 44.0 kb/s
Count of elements           : 3110
Stream size                 : 34.7 MiB (0%)
Title                       : Eng Full
Language                    : English
Default                     : No
Forced                      : No

Text #4
ID                          : 9
Format                      : PGS
Muxing mode                 : zlib
Codec ID                    : S_HDMV/PGS
Codec ID/Info               : Picture based subtitle format used on BDs/HD-DVDs
Duration                    : 1 h 51 min
Bit rate                    : 64.0 kb/s
Count of elements           : 4334
Stream size                 : 51.2 MiB (0%)
Title                       : Eng SDH
Language                    : English
Default                     : No
Forced                      : No

Menu
00:00:00.000                : en:Chapter 1
00:09:11.049                : en:Chapter 2
00:13:30.475                : en:Chapter 3
00:20:58.173                : en:Chapter 4
00:25:17.598                : en:Chapter 5
00:33:07.902                : en:Chapter 6
00:43:43.244                : en:Chapter 7
00:48:15.641                : en:Chapter 8
00:53:39.548                : en:Chapter 9
00:58:51.902                : en:Chapter 10
01:05:23.543                : en:Chapter 11
01:11:34.081                : en:Chapter 12
01:19:17.002                : en:Chapter 13
01:30:30.675                : en:Chapter 14
01:38:04.167                : en:Chapter 15
01:43:30.412                : en:Chapter 16


Джерело: &


Золотий реліз (завантажене не впливає на рейтинг)
 Трекер:    Зареєстрований   

Завантажити / скачати фільм українською



відео для новачків



 Зареєстрований:   2017-10-05 09:56
 Розмір:   21.98 GB 
 Оцінка фільму:   7.3/10 (Голосів: 49)
   
Інші релізи
   На драйві / Baby Driver (2017) AVC Ukr/Eng | Sub Ukr/Eng 11FrYkT  228 / 4   2.25 GB   2017-10-05 18:29 
   На драйві / Baby Driver (2017) 720p Ukr/Eng | Sub Ukr/Eng 11FrYkT  139 / 4   6.3 GB   2017-10-05 18:25 
   На драйві / Baby Driver (2017) 1080p Ukr/Eng | Sub Ukr/Eng igor911  140 / 2   8.91 GB   2017-10-05 18:02 
   На драйві / Baby Driver (2017) Electroz  395 / 1   1.59 GB   2017-10-05 08:45 
life-men 
Частий відвідувач


З нами з: 19.04.13
Востаннє: 20.10.17
Повідомлень: 29

2017-10-05 12:32  
Побільше б таких релізів з розміром 1920 х 1080 . За реліз респект))
Anonymous 







2017-10-05 12:33  
life-men, там чорні смуги
life-men 
Частий відвідувач


З нами з: 19.04.13
Востаннє: 20.10.17
Повідомлень: 29

2017-10-05 13:39  
Anonymous написано:
life-men, там чорні смуги

не побачив )

casper101 
Поважний учасник


З нами з: 03.12.09
Востаннє: 20.10.17
Повідомлень: 232

2017-10-05 14:58  
а чого золото?
Anonymous 







2017-10-05 15:49  
casper101, бо це ремукс.

Додано через 29 секунд:

всі ремукси в золоті.

Lyolic 
Свій


З нами з: 04.08.09
Востаннє: 20.10.17
Повідомлень: 72

2017-10-06 00:45  
Не зрозумів, за що такий високий бал IMDB...
Фільм дійсно якось не звично знятий, але ж сюжет - затягана банальщина...
Ну і, як завжди, переклад назви - вільна творчість...

sDob 
Новенький


З нами з: 19.01.16
Востаннє: 20.10.17
Повідомлень: 13

2017-10-06 09:42  
переглянува вчора, стільки ажіотажу було, еге.
3 хвилини досить якісного екшену, цікава підбірка треків - ось все, що я тут побачив. все інше - повний примітивізм з підтанцьовками і співами.
як максимум особиста оцінка 5/10.
здивований, що Спейсі погодився на таку "роль"

Hovik 
Частий відвідувач


З нами з: 28.12.15
Востаннє: 20.10.17
Повідомлень: 30

2017-10-06 13:16  
Насолода тривалістю 1:52:39 і вдячність Едгару Райту за черговий шедевр.
evenger 
Новенький


З нами з: 22.11.12
Востаннє: 14.10.17
Повідомлень: 4

2017-10-07 06:35  
Чому в Remux а звук 2.0 192 кб/с. як мр3 в 2007 році? Мені хочеться плакать...
Anonymous 







2017-10-07 11:24  
evenger написано:
Чому в Remux а звук 2.0 192 кб/с. як мр3 в 2007 році? Мені хочеться плакать...

а що тобі на це відповіла служба підтримки айтюнсу?

Nemmezis 
Новенький


З нами з: 11.08.17
Востаннє: 20.10.17
Повідомлень: 15

2017-10-12 20:54  
Слабенький фільм, очікував більшого, але ...
smotrok 
Новенький


З нами з: 17.09.17
Востаннє: 16.10.17
Повідомлень: 1

2017-10-15 13:46  
Фільм дуже сподобався. Так, надто нового в сюжеті немає, хоча фішка з шумом у вухах головного героя, як причина його меломанства - досить непогана. Але чим поза сюжетом бере фільм? Звісно стильністю. Елегантним навіть розкриттям сюжету завдяки тому ж таки стильному саундтреку й прекрасній грі акторів. А ще попри деяку шаблоннність героїв, виписані вони бездоганно й не залишають враження штучності. Вони живі й гармонійно вписуються в канву фільму. А ще фільм просто атмосферний, він легко підносить внутрішній світ героя, перипетії драматичного кохання, яке так ним і не стало. Рекомендую.
V.i.R.u.S 
Новенький


З нами з: 19.11.10
Востаннє: 21.10.17
Повідомлень: 14

2017-10-15 14:03  
Доволі таки цікавий фільм.
mrdarkness 
Новенький


З нами з: 19.05.17
Востаннє: 20.10.17
Повідомлень: 5

2017-10-15 15:42  
Фільм класний! Мені сподобався Wink (2)
Хлоя Прайс 
Свій


З нами з: 16.07.16
Востаннє: 16.10.17
Повідомлень: 53

2017-10-16 11:15  
Хто ще сумнівається у фільмі чи зневажає ось:

https://youtu.be/dKyjAeWclOg

Примітивний сюжет, примітивний сюжет. Ви хочете, щоб кожен другий фільм був як в Девіда Фінчера?
Едгарт Райт спеціально взяв цей жанр, цей примітивний сюжет, щоб показати, що можна зробити в межах одного жанру і як можна переосмислити штампи і кліше.

sandman 
Поважний учасник


З нами з: 12.08.12
Востаннє: 20.10.17
Повідомлень: 175

2017-10-16 12:19  
Дякую, фільм виявився на диво приємним.
Oceanel 
Новенький


З нами з: 14.02.12
Востаннє: 16.10.17
Повідомлень: 1

2017-10-16 23:15  
Теж сподобався, були тупі моменти, нелогічні дії персонажів фльму, але в цілому справив гарне враження.
Чомусь при перегляді згадався "Drive" 2011 року з Райаном Гослінгом у головній ролі.

ВАВУНЯ 
Свій


З нами з: 30.06.15
Востаннє: 20.10.17
Повідомлень: 143

2017-10-17 15:50  
дитяча, нецікава, передбачувана, повна "ляпів" і "безглуздостів" стрічка.
дивуюсь пану Спейсі - знятись у такому л...йні?! О_о
3/10

Ваш часовий пояс: GMT + 2 Години

Нова тема   Відповісти