Диво-жінка / Wonder Woman (2017) 720p-mini (60 fps)

Нові коментарі

Нова тема   Відповісти
Автор Повідомлення
Drool 
VIP


З нами з: 17.04.10
Востаннє: 15.12.17
Повідомлень: 1412

2017-10-04 12:16  
Диво-жінка / Wonder Woman (2017) 720p-mini (60 fps)

Диво-жінка / Wonder Woman (2017) 720p-mini (60 fps)


Жанр: фентезі, бойовик, пригоди
Країна: США


Діти до 13 років допускаються на фільм тільки з батьками
Настійне застереження батькам. Деякий матеріал може бути невідповідним для дітей до 13 років. Цей рейтинг показує, що оцінений фільм може бути невідповідним для дітей. Батьки повинні бути особливо обережні, дозволяючи своїм маленьким дітям перегляд. Грубе або тривале насильство відсутнє; сексуальна орієнтація на наготу відсутня; деякі сцени вживання наркотиків можуть бути присутніми; можна почути одиничні вживання грубої сексуальної лексики. Присутня епізодична оголеність (не враховуючи репродуктивні органи). Присутні сексуальні натяки і натяки на гомосексуалізм чи сексуальні збочення.
Кінокомпанія: Warner Bros. Pictures, DC Entertainment
Режисер: Петті Дженкінс
Актори: Галь Гадот, Робін Райт, Кріс Пайн, Конні Нільсен, Девід Тьюліс, Олена Аная, Люсі Девіс

Сюжет:
Головна героїня фільму – Діана (Галь Гадот). Вона принцеса амазонок, мила, добра і привітна дівчина. Але якщо вам не пощастило стати її ворогом, то ви взнаєте Діану зовсім з іншого боку. Крім ідеального володіння технікою бою, вона має в розпорядженні ласо, за допомогою якого змушує всіх говорити тільки правду. На острові, де живе Діана, зазнає аварії літак. Пілот Стів Тревор (Кріс Пайн) розповідає дівчині про війну, яка охопила весь світ. Діана не може залишатися осторонь і разом зі Стівом вступає в битву за мир.


Тривалість: 02:21:15
Якість: 720p-mini
Відео:
кодек:
розмір кадру: 1280x534
бітрейт: 5574 кб/с
crf: 16.5
кадрів на секунду: 60.000 к/с

Аудіо:
мова: українська
переклад: професійний дубльований
кодек: 2.0
бітрейт: 192 кб/с

Субтитри:
мова: українська
тип: програмні (м'які, форсовані)
формат: *.srt
Info
Код:
General
Unique ID                                : 300709270715216527954610481128746392599 (0xE23A7FB8137B08BAE753FA4A8B0A1C17)
Complete name                            : /mnt/disk_d/Video/Wonder.Woman.2017.Ukr.Dub-2.0..720p-mini.60fps.
Format                                   :
Format version                           : Version 4 / Version 2
File size                                : 5.69 GiB
Duration                                 : 2 h 21 min
Overall bit rate                         : 5 770 kb/s
Movie name                               : Диво-жінка / Wonder Woman (2017) 720p-mini [60 fps] | NNNB
Encoded date                             : UTC 2017-10-04 09:50:28
Writing application                      : mkvmerge v14.0.0 ('Flow') 64bit
Writing library                          : libebml v1.3.4 + libmatroska v1.4.7
Cover                                    : Yes
Attachments                              : cover.png

Video
ID                                       : 1
Format                                   : AVC
Format/Info                              : Advanced Video Codec
Format profile                           : [email protected]
Format settings                          : CABAC / 9 Ref Frames
Format settings, CABAC                   : Yes
Format settings, RefFrames               : 9 frames
Codec ID                                 : V_MPEG4/ISO/AVC
Duration                                 : 2 h 21 min
Bit rate                                 : 5 574 kb/s
Width                                    : 1 280 pixels
Height                                   : 534 pixels
Display aspect ratio                     : 2.40:1
Frame rate mode                          : Constant
Frame rate                               : 60.000 FPS
Color space                              : YUV
Chroma subsampling                       : 4:2:0
Bit depth                                : 8 bits
Scan type                                : Progressive
Bits/(Pixel*Frame)                       : 0.136
Stream size                              : 5.50 GiB (97%)
Title                                    : Диво-жінка / Wonder Woman (2017) 720p-mini [60 fps] | NNNB
Writing library                          : core 146 r2538 121396c
Encoding settings                        : cabac=1 / ref=9 / deblock=1:0:0 / analyse=0x3:0x113 / me=umh / subme=10 / psy=1 / psy_rd=1.00:0.00 / mixed_ref=1 / me_range=24 / chroma_me=1 / trellis=2 / 8x8dct=1 / cqm=0 / deadzone=21,11 / fast_pskip=0 / chroma_qp_offset=-2 / threads=12 / lookahead_threads=1 / sliced_threads=0 / nr=0 / decimate=1 / interlaced=0 / bluray_compat=0 / constrained_intra=0 / bframes=5 / b_pyramid=2 / b_adapt=2 / b_bias=0 / direct=3 / weightb=1 / open_gop=0 / weightp=2 / keyint=250 / keyint_min=25 / scenecut=40 / intra_refresh=0 / rc=crf / mbtree=0 / crf=16.5 / qcomp=0.60 / qpmin=0 / qpmax=69 / qpstep=4 / ip_ratio=1.40 / pb_ratio=1.30 / aq=3:1.00
Default                                  : Yes
Forced                                   : Yes

Audio
ID                                       : 2
Format                                   : AC-3
Format/Info                              : Audio Coding 3
Format settings, Endianness              : Big
Codec ID                                 : A_AC3
Duration                                 : 2 h 21 min
Bit rate mode                            : Constant
Bit rate                                 : 192 kb/s
Channel(s)                               : 2 channels
Channel positions                        : Front: L R
Sampling rate                            : 48.0 kHz
Frame rate                               : 31.250 FPS (1536 SPF)
Bit depth                                : 16 bits
Compression mode                         : Lossy
Stream size                              : 194 MiB (3%)
Title                                    : 2.0 @ 192 kbps
Language                                 : Ukrainian
Service kind                             : Complete Main
Default                                  : Yes
Forced                                   : Yes

Text
ID                                       : 3
Format                                   : UTF-8
Codec ID                                 : S_TEXT/UTF8
Codec ID/Info                            : UTF-8 Plain Text
Duration                                 : 2 h 8 min
Bit rate                                 : 1 b/s
Count of elements                        : 24
Stream size                              : 1.12 KiB (0%)
Title                                    : Forced
Language                                 : Ukrainian
Default                                  : Yes
Forced                                   : Yes
Скріншоти




Джерело відеоряду:
Особиста оцінка: 8 - мені сподобалося


 Трекер:    Зареєстрований   

Завантажити / скачати фільм українською



відео для новачків



 Зареєстрований:   2017-10-04 12:16
 Розмір:   5.69 GB 
 Оцінка фільму:   7.3/10 (Голосів: 16)
   
Інші релізи
   Диво-жінка / Wonder Woman (2017) 1080p 3D [Half SideBySide] Ukr/Eng | Sub Eng Yarik73  19 / 0   10.08 GB   2017-09-14 21:08 
   Диво-жінка / Wonder Woman (2017) Remux 1080p Ukr/Eng | Sub Eng IronBee  16 / 3   24.52 GB   2017-09-10 18:31 
   Диво-жінка / Wonder Woman (2017) igor911  159 / 1   1.93 GB   2017-09-09 10:32 
   Диво-жінка / Wonder Woman (2017) AVC Ukr/Eng | Sub Eng 11FrYkT  74 / 1   2.86 GB   2017-09-09 10:20 
   Диво-жінка / Wonder Woman (2017) 1080p Ukr/Eng | Sub Eng igor911  67 / 1   12.53 GB   2017-09-08 18:07 
   Диво-жінка / Wonder Woman (2017) 720p Ukr/Eng | Sub Eng 11FrYkT  76 / 1   6.46 GB   2017-09-08 06:00 
bot 
робот


З нами з: 30.09.07
Востаннє: 26.05.05
Повідомлень: 17898

2017-10-04 12:16  
Тему перенесено з Фільми в HD до форуму Анонси релізів


Drool

bot 
робот


З нами з: 30.09.07
Востаннє: 26.05.05
Повідомлень: 17898

2017-10-04 15:33  
Тему перенесено з Анонси релізів до форуму Фільми в HD


Drool

dy 
Новенький


З нами з: 01.03.14
Востаннє: 15.12.17
Повідомлень: 1

2017-10-04 19:19  
звідки беруть 60 фпс, якщо оригінал в 24?

вибачте, я просто з села

Drool 
VIP


З нами з: 17.04.10
Востаннє: 15.12.17
Повідомлень: 1412

2017-10-04 20:40  
dy написано:
звідки беруть 60 фпс, якщо оригінал в 24?
З інтерполяції спеціальними алгоритмами і дуже прямими руками Wink (1)
ktw14 
Свій


З нами з: 24.03.11
Востаннє: 08.12.17
Повідомлень: 128

2017-10-08 12:15  
Гарний фільм
Ваш часовий пояс: GMT + 2 Години

Нова тема   Відповісти