Вартові Галактики 2 / Guardians of the Galaxy Vol. 2 (2017) 720p-mini (60 fps)

Нові коментарі

Нова тема   Відповісти
Автор Повідомлення
Drool 
VIP


З нами з: 17.04.10
Востаннє: 18.10.17
Повідомлень: 1402

2017-10-03 17:27  
Вартові Галактики 2 / Guardians of the Galaxy Vol. 2 (2017) 720p-mini (60 fps)

Вартові Галактики 2 / Guardians of the Galaxy Vol. 2 (2017) 720p-mini (60 fps)


Жанр: пригоди, фантастика, бойовик
Країна: США


Діти до 13 років допускаються на фільм тільки з батьками
Настійне застереження батькам. Деякий матеріал може бути невідповідним для дітей до 13 років. Цей рейтинг показує, що оцінений фільм може бути невідповідним для дітей. Батьки повинні бути особливо обережні, дозволяючи своїм маленьким дітям перегляд. Грубе або тривале насильство відсутнє; сексуальна орієнтація на наготу відсутня; деякі сцени вживання наркотиків можуть бути присутніми; можна почути одиничні вживання грубої сексуальної лексики. Присутня епізодична оголеність (не враховуючи репродуктивні органи). Присутні сексуальні натяки і натяки на гомосексуалізм чи сексуальні збочення.
Кінокомпанія: Walt Disney Pictures, Marvel Studios
Режисер: Джеймс Ґанн
Актори: Кріс Пратт, Зої Салдана, Дейв Батіста, Бредлі Купер, Він Дізель, Карен Ґіллан, Майкл Рукер, Пом Клементьєфф, Курт Рассел, Елізабет Дебік

Сюжет:
Продовження пригод антигероїв кінематографічного всесвіту Marvel – Вартових Галактики. Тут і дочка Таноса Ґамора, і громила Дракс, і геній-єнот Ракета, і новонароджений малюк Ґрут, і Зоряний Лорд Пітер Квілл. Останній зобов'язаний нарешті дізнатися, хто його батько, та знайти його серед неосяжних просторів космосу. Також до команди приєднаються Мантіс і Йонду. Героям належить потрапити в нестандартні ситуації і знову рятувати всю Галактику від страшних загроз.


Тривалість: 02:15:46
Якість: 720p-mini
Відео:
кодек:
розмір кадру: 1280x536
бітрейт: 4060 кб/с
crf: 18.5
кадрів на секунду: 60.000 к/с

Аудіо:
мова: українська
переклад: професійний дубльований
кодек: 5.1
бітрейт: 448 кб/с

Субтитри:
мова: українська
тип: програмні (м'які, форсовані)
формат: *.srt
Info
Код:
General
Unique ID                                : 328819128899550573032672436113758142781 (0xF76042BAD7CB3534A74562760552C13D)
Complete name                            : /mnt/disk_d/Video/Guardians.of.the.Galaxy.Vol.2.2017.Ukr.Dub..720p-mini.60fps.
Format                                   :
Format version                           : Version 4 / Version 2
File size                                : 4.28 GiB
Duration                                 : 2 h 15 min
Overall bit rate                         : 4 512 kb/s
Movie name                               : Вартові Галактики 2 / Guardians of the Galaxy Vol. 2 (2017) 720p-mini [60 fps] | NNNB
Encoded date                             : UTC 2017-10-03 14:05:07
Writing application                      : mkvmerge v14.0.0 ('Flow') 64bit
Writing library                          : libebml v1.3.4 + libmatroska v1.4.7
Cover                                    : Yes
Attachments                              : cover

Video
ID                                       : 1
Format                                   : AVC
Format/Info                              : Advanced Video Codec
Format profile                           : [email protected]
Format settings                          : CABAC / 9 Ref Frames
Format settings, CABAC                   : Yes
Format settings, RefFrames               : 9 frames
Codec ID                                 : V_MPEG4/ISO/AVC
Duration                                 : 2 h 15 min
Bit rate                                 : 4 060 kb/s
Width                                    : 1 280 pixels
Height                                   : 536 pixels
Display aspect ratio                     : 2.40:1
Frame rate mode                          : Constant
Frame rate                               : 60.000 FPS
Color space                              : YUV
Chroma subsampling                       : 4:2:0
Bit depth                                : 8 bits
Scan type                                : Progressive
Bits/(Pixel*Frame)                       : 0.099
Stream size                              : 3.85 GiB (90%)
Title                                    : Вартові Галактики 2 / Guardians of the Galaxy Vol. 2 (2017) 720p-mini [60 fps] | NNNB
Writing library                          : core 146 r2538 121396c
Encoding settings                        : cabac=1 / ref=9 / deblock=1:0:0 / analyse=0x3:0x113 / me=umh / subme=11 / psy=1 / psy_rd=1.00:0.00 / mixed_ref=1 / me_range=24 / chroma_me=1 / trellis=2 / 8x8dct=1 / cqm=0 / deadzone=21,11 / fast_pskip=0 / chroma_qp_offset=-2 / threads=12 / lookahead_threads=1 / sliced_threads=0 / nr=0 / decimate=1 / interlaced=0 / bluray_compat=0 / constrained_intra=0 / bframes=5 / b_pyramid=2 / b_adapt=2 / b_bias=0 / direct=3 / weightb=1 / open_gop=0 / weightp=2 / keyint=250 / keyint_min=25 / scenecut=40 / intra_refresh=0 / rc=crf / mbtree=0 / crf=18.5 / qcomp=0.60 / qpmin=0 / qpmax=69 / qpstep=4 / ip_ratio=1.40 / pb_ratio=1.30 / aq=3:1.00
Default                                  : Yes
Forced                                   : Yes

Audio
ID                                       : 2
Format                                   : AC-3
Format/Info                              : Audio Coding 3
Format settings, Endianness              : Big
Codec ID                                 : A_AC3
Duration                                 : 2 h 15 min
Bit rate mode                            : Constant
Bit rate                                 : 448 kb/s
Channel(s)                               : 6 channels
Channel positions                        : Front: L C R, Side: L R, LFE
Sampling rate                            : 48.0 kHz
Frame rate                               : 31.250 FPS (1536 SPF)
Bit depth                                : 16 bits
Compression mode                         : Lossy
Stream size                              : 435 MiB (10%)
Title                                    : 5.1 @ 448 kbps
Language                                 : Ukrainian
Service kind                             : Complete Main
Default                                  : Yes
Forced                                   : Yes

Text
ID                                       : 3
Format                                   : UTF-8
Codec ID                                 : S_TEXT/UTF8
Codec ID/Info                            : UTF-8 Plain Text
Duration                                 : 2 h 6 min
Bit rate                                 : 0 b/s
Count of elements                        : 12
Stream size                              : 440 Bytes (0%)
Title                                    : Forced
Language                                 : Ukrainian
Default                                  : Yes
Forced                                   : Yes
Скріншоти




Джерело відеоряду:
Особиста оцінка: 8 - мені сподобалося


 Трекер:    Зареєстрований   

Завантажити / скачати фільм українською



відео для новачків



 Зареєстрований:   2017-10-03 17:27
 Розмір:   4.28 GB 
 Оцінка фільму:   5.9/10 (Голосів: 8)
   
Інші релізи
   Вартові Галактики 2 / Guardians of the Galaxy Vol. 2 (2017) 1080p 3D [Half OverUnder] [IMAX Edition] Ukr/Eng | Sub Ukr/Eng GEORGKys  6 / 0   10.24 GB   2017-09-10 10:52 
   Вартові Галактики 2 / Guardians of the Galaxy Vol. 2 (2017) 1080p 3D [Half OverUnder] Ukr/Eng | Sub Ukr/Eng GEORGKys  12 / 0   12.25 GB   2017-09-03 23:40 
   Вартові Галактики 2 / Guardians of the Galaxy Vol. 2 (2017) 1080p [IMAX Edition] Ukr/Eng | Sub Ukr/Eng yuretsua  31 / 0   17.71 GB   2017-08-27 01:36 
   Вартові Галактики 2 / Guardians of the Galaxy Vol. 2 (2017) Covenant  88 / 4   1.45 GB   2017-08-26 11:20 
   Вартові Галактики 2 / Guardians of the Galaxy Vol. 2 (2017) 720p [IMAX Edition] Ukr/Eng | Sub Ukr/Eng 11FrYkT  73 / 0   6.19 GB   2017-08-24 21:20 
   Вартові Галактики 2 / Guardians of the Galaxy Vol. 2 (2017) Remux 1080p [IMAX Edition] Ukr/Eng 1080p Ukr/Eng | Sub Ukr/Eng 11FrYkT  37 / 1   30.68 GB   2017-08-24 09:57 
   Вартові галактики 2 / Guardians of the Galaxy Vol. 2 (2017) 1080p Ukr/Eng | Sub Ukr/Eng vovikmar  39 / 0   13.24 GB   2017-08-23 22:25 
   Вартові Галактики 2 / Guardians of the Galaxy Vol. 2 (2017) AVC [IMAX Edition] Ukr/Eng | Sub Ukr/Eng 11FrYkT  141 / 1   2.91 GB   2017-08-23 21:19 
   Вартові галактики 2 / Guardians of the Galaxy Vol. 2 (2017) AVC Eng | sub Ukr/Eng vovikmar  24 / 0   2.51 GB   2017-08-10 21:34 
zoomymba2012 
Свій


З нами з: 08.01.15
Востаннє: 18.10.17
Повідомлень: 139

2017-10-05 17:24  
Шкода що не IMAX
Одессит 
Новенький


З нами з: 29.04.14
Востаннє: 06.10.17
Повідомлень: 13

2017-10-06 21:59  
З нетерпіням чекав! Перша частина просто супер! Сподіваюсь ця не гірша.
dzhaman 
Новенький


З нами з: 03.06.10
Востаннє: 18.10.17
Повідомлень: 4

2017-10-16 20:00  
Доброго вечора. А окремо звукову доріжку можна десь взяти? Дякую.
sergiyko.5 
VIP


З нами з: 25.02.16
Востаннє: 18.10.17
Повідомлень: 1133

2017-10-16 21:15  
dzhaman
Пишеш у гуглі "витягти звукову доріжку з " і роби по інструкції.

dzhaman 
Новенький


З нами з: 03.06.10
Востаннє: 18.10.17
Повідомлень: 4

2017-10-17 08:47  
sergiyko.5

я в курсі як витягти звукову доріжку, але я не хочу качати )).

sergiyko.5 
VIP


З нами з: 25.02.16
Востаннє: 18.10.17
Повідомлень: 1133

2017-10-17 08:56  
dzhaman
ясно, ну то чекай невідомо чого і кого

Ваш часовий пояс: GMT + 2 Години

Нова тема   Відповісти