Свинка Пеппа / Peppa Pig (Сезон 5, 19 серій з 52) (2018) 720p Ukr/Eng

Нові коментарі

Нова тема   Відповісти
Автор Повідомлення
sergiyko.5 
Забанено
Забанено


З нами з: 25.02.16
Востаннє: 29.10.20
Повідомлень: 3648

2017-10-03 12:10  


Свинка Пеппа / Peppa Pig (Сезон 5, 19 серій з 52) (2018) 720p Ukr/Eng

Свинка Пеппа / Peppa Pig (Сезон 5, 19 серій з 52) (2018) 720p Ukr/Eng

Жанр: пригоди, комедія
Країна: Велика Британія
Кінокомпанія: Astley Baker Davies Ltd., Contender Group, Entertainment
Режисер: Естлі Бейкер Девіс
Актори: Джон Спаркс, Гарлі Берд, Олівер Мей, Девід Рінтул, Сара Енн Кеннеді, Морвенна Бенкс, Річард Райдінгс

Сюжет:
Персонажі мультфільму наділені якостями як звичайних людей, так і тварин. Вони носять одяг, живуть у будинках, ходять на роботу, у театр, їздять на автомобілі, тощо. Діти відзначають дні народження, катаються на ковзанах, граються у парку — одним словом, займаються тим, чим звичайні діти. З іншого боку, персонажам притаманні вчинки тварин — свинки хрюкають та полюбляють поніжитись у болоті, овечки бекають а кішки нявкають...




Тривалість: 1 серія: 05:05 (цілком серій: 19 з 52)
Якість:

Відео: кодек: розмір кадру: 1280 х 718 бітрейт: 1000 кб/с
Аудіо # 1: мова: українська переклад: професійний дубльований кодек: 2.0 бітрейт: 192 кб/с
Джерело озвучення:
Аудіо # 2: мова: англійська переклад: оригінал кодек: 2.0 бітрейт: 160 кб/с
Перелік серій
01 Гра в удаванки / Playing Pretend
02 Замок / The Castle
03 Таксі пані Кролиці / Miss Rabbit's Taxi
04 Самокати / Scooters
05 Конкурс гарбузів / Pumpkin Competition
06 Жираф Джеральд / Gerald Giraffe

10 Шкільний проект / School Project
11 / Mummy Pig's Book
12 / Grandpa Pig’s Greenhouse
13 / Molly Mole
14 Рухатися під музику / Move to Music
15 Лондон / London
16 / The Police
17 / The Zoo
18 / Canal Boat
19 / The Outback
20 / Surfing
21 / The Great Barrier Reef

23 / Nursery Rhymes
Info
General
Unique ID : 182197940974288685656222271056160853944 (0x89120C0A57947EB3AD66006F84B18FB8)
Complete name : E:\MULTFILMS\Peppa Pig 720p \Peppa Pig S05 720p \Peppa.Pig.S05E02.The.Castle.720p..Ukr.Eng.
Format :
Format version : Version 4 / Version 2
File size : 47.8 MiB
Duration : 5 min 15 s
Overall bit rate : 1 273 kb/s
Movie name : Peppa Pig S05 720p by sergiyko
Encoded date : UTC 2017-10-03 08:46:39
Writing application : v16.0.0 ('Protest') 64-bit
Writing library : libebml v1.3.5 + v1.4.8

Video
ID : 1
Format : AVC
Format/Info : Advanced Video Codec
Format profile : [email protected]
Format settings, CABAC : Yes
Format settings, RefFrames : 1 frame
Format settings, GOP : M=1, N=60
Codec ID : V_MPEG4/ISO/AVC
Duration : 5 min 14 s
Bit rate : 985 kb/s
Width : 1 280 pixels
Height : 718 pixels
Display aspect ratio : 16:9
Frame rate mode : Variable
Frame rate : 24.873 FPS
Color space : YUV
Chroma subsampling : 4:2:0
Bit depth : 8 bits
Scan type : Progressive
Bits/(Pixel*Frame) : 0.043
Stream size : 37.0 MiB (77%)
Title : S05E02 The Castle
Language : English
Default : Yes
Forced : No
Color range : Limited
Color primaries : BT.709
Transfer characteristics : BT.709
Matrix coefficients : BT.709

Audio #1
ID : 2
Format : AC-3
Format/Info : Audio Coding 3
Format settings, Endianness : Big
Codec ID : A_AC3
Duration : 5 min 15 s
Bit rate mode : Constant
Bit rate : 192 kb/s
Channel(s) : 2 channels
Channel positions : Front: L R
Sampling rate : 48.0 kHz
Frame rate : 31.250 FPS (1536 SPF)
Bit depth : 16 bits
Compression mode : Lossy
Stream size : 7.21 MiB (15%)
Title : DUB | ПлюсПлюс
Language : Ukrainian
Service kind : Complete Main
Default : Yes
Forced : Yes

Audio #2
ID : 3
Format :
Format/Info : Advanced Audio Codec
Format profile : LC
Codec ID : A_AAC
Duration : 5 min 15 s
Bit rate : 94.0 kb/s
Channel(s) : 2 channels
Channel positions : Front: L R
Sampling rate : 44.1 kHz
Frame rate : 43.066 FPS (1024 SPF)
Compression mode : Lossy
Stream size : 3.53 MiB (7%)
Title : Original
Language : English
Default : No
Forced : No
Скріншоти:


Запис/зведення: sergiyko


Бронзовий реліз (на рейтинг впливає 75% завантаженого)
 Трекер:    Зареєстрований   

Завантажити / скачати мультфільм українською



відео для новачків



 Зареєстрований:   2017-10-25 16:44
 Розмір:   1.24 GB 
 Оцінка мультсеріалу:   9.4/10 (Голосів: 29)
   
Santiago_Grey 
Свій


З нами з: 17.08.09
Востаннє: 11.04.21
Повідомлень: 119

2017-10-03 13:04  
Дякую! Якось неочікувано з'явився новий сезон. Діти люблять цей мультсеріал Happy Наш український дубляж просто шикарний.
Dov.YV 
Новенький


З нами з: 15.02.14
Востаннє: 03.04.21
Повідомлень: 2

2017-10-08 14:19  
Пітдтримую! Український дубляж супер! Мультик теж))
sergiyko.5 
Забанено
Забанено


З нами з: 25.02.16
Востаннє: 29.10.20
Повідомлень: 3648

2017-10-09 00:09  
Додав нові серії.
MaestroA 
Новенький


З нами з: 20.07.09
Востаннє: 11.04.21
Повідомлень: 4

2017-10-10 20:32  
Велика просьба від мого сина додати серію №13 "The Zoo".
bogdanshumilo 
Новенький


З нами з: 05.01.12
Востаннє: 07.04.21
Повідомлень: 7

2017-10-14 11:57  
Дуже дякую за нові серії)
Але коли будуть інші? (маю на увазі з 7-9 та 13)

nenorm 
Новенький


З нами з: 23.07.13
Востаннє: 09.04.21
Повідомлень: 8

2017-10-21 20:04  
дякую! діти скачуть від щастя))
переклад чудесний!

sergiyko.5 
Забанено
Забанено


З нами з: 25.02.16
Востаннє: 29.10.20
Повідомлень: 3648

2017-10-25 16:47  
Додав 11-13,16-21,23 серії. Всього телеканал показав 30 серій українською мовою, до серій, яких в релізові немає, відсутнє якісне відео.
armyman74 
Новенький


З нами з: 04.10.12
Востаннє: 08.01.21
Повідомлень: 1

2017-10-26 11:11  
sergiyko.5
Щиро дякую за 5 сезон! Знайшов тільки тут. Чекаємо наступних серій, дивимось усією сім'єю.

V.i.R.u.S 
Свій


З нами з: 19.11.10
Востаннє: 14.04.21
Повідомлень: 122

2017-11-26 11:34  
Продовження буде??)
sergiyko.5 
Забанено
Забанено


З нами з: 25.02.16
Востаннє: 29.10.20
Повідомлень: 3648

2017-11-26 12:00  
На сьогоднішній день записано 30 серій п'ятого сезону https://toloka.to/t84851, нових більше не транслюють, але якісного відео знайшов лише до 19 серій.
odin_doma2 
Свій


З нами з: 22.07.08
Востаннє: 12.04.21
Повідомлень: 75

2017-12-12 14:30  
sergiyko.5
треба буде пробігтися на Dailymotion та пошукати 5й сезон в 720р різними мовами, бо бачу, що є інші сезони...але от як ріпнути звідти - я без поняття.

ВАВУНЯ 
VIP


З нами з: 30.06.15
Востаннє: 12.04.21
Повідомлень: 305

2018-11-21 14:25  
коли з'являться всі серії 5-го сезону у 720р?
дякую.

tktl 
Свій


З нами з: 25.08.13
Востаннє: 14.04.21
Повідомлень: 50

2020-04-10 13:42  
Нажаль, це єдина Пеппа на трекері, що має Англійську доріжку.
Maximus Bear 
Новенький


З нами з: 24.01.10
Востаннє: 25.09.20
Повідомлень: 4

2020-04-25 14:07  
Дуже добре, що білінгв ( не тільки український переклад, але й англійський оригінал). Погано, що немає субтитрів.
Дякую, скачав

Додано через 1 хвилину 49 секунд:

tktl
я теж це помітив. Міг би бути чудовий посібник для вивчення англійської й дітьми й дорослими

Ваш часовий пояс: GMT + 2 Години

Нова тема   Відповісти