Мілина / The Shallows (2016) UHD 4K 2160p H.265 HDR Ukr/Eng | Sub Ukr/Eng

Нові коментарі

Нова тема   Відповісти
Автор Повідомлення
Babamin 
Свій


З нами з: 29.12.15
Востаннє: 15.10.19
Повідомлень: 66

2017-10-02 00:16  
Мілина / The Shallows (2016) UHD 4K 2160p Ukr/Eng | Sub Ukr/Eng

Мілина / The Shallows (2016) UHD 4K 2160p H.265 HDR Ukr/Eng | Sub Ukr/Eng
Усі українські постери:



Мілина / The Shallows (2016) UHD 4K 2160p H.265 HDR Ukr/Eng | Sub Ukr/Eng






повнорозмірні зображення відкриються по кліку (з натиснутим CTRL чи кліком середньою кнопкою мишки - у новій вкладці)


Жанр: драма, жахи, трилер
Країна: США



Кінокомпанія: Columbia Pictures, Ombra Films, Weimaraner Republic Pictures
Режисер: Жауме Коллет-Серра
Актори: Блейк Лайвлі, Оскар Гаенада, Бретт Каллен, Седона Леджен, Пабло Кальва, Дієґо Еспегель, Джанелл Бейлі, Ава Дін, Челсі Муді, Саллі Сіґалл

Сюжет:
Безкрайній океан, безлюдний пляж і ідеальна погода для серфінгістів в пошуках хорошої хвилі. Здавалося б, ніщо не віщує біди для чарівної любительки серфінгу. Хіба що побачення тет-а-тет з гігантською акулою, яка зажене спортсменку на піщану мілину і не відступить до тих пір, поки не отримає своє.


Тривалість: 01:26:16
Якість: UltraHD 4K 2160p
Контейнер:

Відео:
кодек: H.265
розмір кадру: 3840 х 1604
бітрейт: 14,7 Мб/с
бітова глибина: 10 біт
кольоровий простір: BT.2020 (HDR)

Аудіо # 1:
мова: українська
переклад: професійний дубльований
кодек: 2.0
бітрейт: 192 кб/с

Аудіо # 2:
мова: англійська
переклад: оригінал
кодек: 5.1
бітрейт: 640 кб/с

Субтитри # 1-2: (форсовані, повні)
мова: українська
тип: програмні (м'які)
формат: *.srt
примітка: переклад Aqbf, синхронізація та редагування igor911

Субтитри # 3-5:
мова: англійська (повні, форсовані, SDH)
тип: програмні (м'які)
формат: *.srt
Info:
Complete name : The.Shallows.(2016).UHD.HDR..HEVC.4K.2160p-Toloka.
Format :
Format version : Version 4 / Version 2
File size : 9.38 GiB
Duration : 1 h 26 min
Overall bit rate : 15.6 Mb/s
Movie name : Мілина / The Shallows (2016) HEVC HDR10 UHD- 2160p (iS)
Encoded date : UTC 2017-10-01 20:24:55
Writing application : v14.0.0 ('Flow') 64bit
Writing library : libebml v1.3.4 + v1.4.5
Cover : Yes
Attachments : x265_log.txt / cover.jpg

Video
ID : 1
Format : HEVC
Format/Info : High Efficiency Video Coding
Format profile : Main [email protected]@High
Codec ID : V_MPEGH/ISO/HEVC
Duration : 1 h 26 min
Bit rate : 14.7 Mb/s
Width : 3 840 pixels
Height : 1 604 pixels
Display aspect ratio : 2.40:1
Frame rate mode : Constant
Frame rate : 23.976 (24000/1001) FPS
Color space : YUV
Chroma subsampling : 4:2:0
Bit depth : 10 bits
Bits/(Pixel*Frame) : 0.100
Stream size : 8.87 GiB (95%)
Writing library : x265 2.5+17-f8ae7afc1f61:[Windows][GCC 6.2.1][64 bit] 10bit
Encoding settings : cpuid=1173503 / frame-threads=3 / numa-pools=8 / wpp / no-pmode / no-pme / no-psnr / no-ssim / log-level=2 / input-csp=1 / input-res=3840x1604 / interlace=0 / total-frames=117060 / level-idc=51 / high-tier=1 / uhd-bd=0 / ref=4 / no-allow-non-conformance / repeat-headers / annexb / no-aud / no-hrd / info / hash=0 / no-temporal-layers / no-open-gop / min-keyint=23 / keyint=250 / bframes=4 / b-adapt=2 / b-pyramid / bframe-bias=0 / rc-lookahead=96 / lookahead-slices=4 / scenecut=40 / no-intra-refresh / ctu=64 / min-cu-size=8 / no-rect / no-amp / max-tu-size=32 / tu-inter-depth=1 / tu-intra-depth=1 / limit-tu=0 / rdoq-level=2 / dynamic-rd=0.00 / no-ssim-rd / signhide / no-tskip / nr-intra=0 / nr-inter=0 / no-constrained-intra / no-strong-intra-smoothing / max-merge=5 / limit-refs=3 / limit-modes / me=3 / subme=7 / merange=57 / temporal-mvp / weightp / no-weightb / no-analyze-src-pics / deblock=0:0 / no-sao / no-sao-non-deblock / rd=4 / no-early-skip / no-rskip / no-fast-intra / no-tskip-fast / no-cu-lossless / no-b-intra / no-splitrd-skip / rdpenalty=0 / psy-rd=2.00 / psy-rdoq=3.00 / no-rd-refine / analysis-reuse-mode=0 / no-lossless / cbqpoffs=0 / crqpoffs=0 / rc=crf / crf=20.0 / qcomp=0.60 / qpstep=4 / stats-write=0 / stats-read=0 / vbv-maxrate=160000 / vbv-bufsize=160000 / vbv-init=0.9 / crf-max=0.0 / crf-min=0.0 / ipratio=1.40 / pbratio=1.30 / aq-mode=0 / aq-strength=0.00 / no-cutree / zone-count=0 / no-strict-cbr / qg-size=64 / no-rc-grain / qpmax=69 / qpmin=0 / no-const-vbv / sar=0 / overscan=0 / videoformat=5 / range=0 / colorprim=9 / transfer=16 / colormatrix=9 / chromaloc=0 / display-window=0 / master-display=G(13250,34500)B(7500,3000)R(34000,16000)WP(15635,16450)L(40000000,50) / max-cll=1933,709 / min-luma=0 / max-luma=1023 / log2-max-poc-lsb=8 / vui-timing-info / vui-hrd-info / slices=1 / opt-qp-pps / opt-ref-list-length-pps / no-multi-pass-opt-rps / scenecut-bias=0.05 / no-opt-cu-delta-qp / no-aq-motion / hdr / no-hdr-opt / no-dhdr10-opt / analysis-reuse-level=5 / scale-factor=0 / refine-intra=0 / refine-inter=0 / refine-mv=0 / no-limit-sao / ctu-info=0
Default : Yes
Forced : No
Color range : Limited
Color primaries : BT.2020
Transfer characteristics : SMPTE ST 2084
Matrix coefficients : BT.2020 non-constant
Mastering display color pri : R: x=0.680000 y=0.320000, G: x=0.265000 y=0.690000, B: x=0.150000 y=0.060000, White point: x=0.312700 y=0.329000
Mastering display luminance : min: 0.0050 cd/m2, max: 4000.0000 cd/m2
Maximum Content Light Level : 1933 cd/m2
Maximum Frame-Average Light : 709 cd/m2

Audio #1
ID : 2
Format : AC-3
Format/Info : Audio Coding 3
Format settings, Endianness : Big
Codec ID : A_AC3
Duration : 1 h 26 min
Bit rate mode : Constant
Bit rate : 192 kb/s
Channel(s) : 2 channels
Channel positions : Front: L R
Sampling rate : 48.0 kHz
Frame rate : 31.250 FPS (1536 spf)
Bit depth : 16 bits
Compression mode : Lossy
Stream size : 118 MiB (1%)
Title : Dub [LeDoyen] 2.0 [real stereo] 192 Kbps [Hurtom]
Language : Ukrainian
Service kind : Complete Main
Default : Yes
Forced : No

Audio #2
ID : 3
Format : AC-3
Format/Info : Audio Coding 3
Format settings, Endianness : Big
Codec ID : A_AC3
Duration : 1 h 26 min
Bit rate mode : Constant
Bit rate : 640 kb/s
Channel(s) : 6 channels
Channel positions : Front: L C R, Side: L R, LFE
Sampling rate : 48.0 kHz
Frame rate : 31.250 FPS (1536 spf)
Bit depth : 16 bits
Compression mode : Lossy
Stream size : 395 MiB (4%)
Title : original
Language : English
Service kind : Complete Main
Default : No
Forced : No

Text #1
ID : 4
Format : UTF-8
Codec ID : S_TEXT/UTF8
Codec ID/Info : UTF-8 Plain Text
Duration : 6 min 45 s
Bit rate : 6 b/s
Count of elements : 16
Stream size : 332 Bytes (0%)
Title : Ukr Forced [Hurtom-[igor911,Aqbf]
Language : Ukrainian
Default : Yes
Forced : Yes

Text #2
ID : 5
Format : UTF-8
Codec ID : S_TEXT/UTF8
Codec ID/Info : UTF-8 Plain Text
Duration : 1 h 20 min
Bit rate : 26 b/s
Count of elements : 454
Stream size : 15.4 KiB (0%)
Title : Ukr Full [Hurtom-Aqbf,igor911]
Language : Ukrainian
Default : No
Forced : No

Text #3
ID : 6
Format : UTF-8
Codec ID : S_TEXT/UTF8
Codec ID/Info : UTF-8 Plain Text
Duration : 1 h 17 min
Bit rate : 18 b/s
Count of elements : 446
Stream size : 10.3 KiB (0%)
Language : English
Default : No
Forced : No

Text #4
ID : 7
Format : UTF-8
Codec ID : S_TEXT/UTF8
Codec ID/Info : UTF-8 Plain Text
Duration : 4 min 19 s
Bit rate : 6 b/s
Count of elements : 13
Stream size : 200 Bytes (0%)
Title : forced
Language : English
Default : No
Forced : No

Text #5
ID : 8
Format : UTF-8
Codec ID : S_TEXT/UTF8
Codec ID/Info : UTF-8 Plain Text
Duration : 1 h 25 min
Bit rate : 27 b/s
Count of elements : 915
Stream size : 17.4 KiB (0%)
Title : Eng SDH
Language : English
Default : No
Forced : No

Menu
00:00:00.000 : en:Chapter 1
00:08:08.697 : en:Chapter 2
00:15:09.409 : en:Chapter 3
00:20:30.938 : en:Chapter 4
00:25:44.876 : en:Chapter 5
00:30:06.053 : en:Chapter 6
00:36:03.118 : en:Chapter 7
00:40:38.685 : en:Chapter 8
00:45:40.611 : en:Chapter 9
00:49:31.216 : en:Chapter 10
00:55:56.976 : en:Chapter 11
01:01:20.507 : en:Chapter 12
01:06:21.558 : en:Chapter 13
01:09:56.439 : en:Chapter 14
01:13:37.701 : en:Chapter 15
01:19:00.482 : en:Chapter 16
Скріншоти:









Джерело: &
Подяка пану AngryBirdsUA за доріжку, та пану Gelios за синхронізацію
Подяка пану Aqbf за переклад, та пану igor911 за синхронізацію та редагування
Подяка панам Gelios, Ham_R за українські постери.


 Трекер:    Зареєстрований   

Завантажити / скачати фільм українською



відео для новачків



 Зареєстрований:   2017-10-02 00:16
 Розмір:   9.38 GB 
 Оцінка фільму:   7.8/10 (Голосів: 17)
   
Інші релізи
   Мілина / The Shallows (2016) 1080p Ukr/Eng | Sub Ukr/Eng 11FrYkT  4 / 0   9.64 GB   2019-06-10 11:24 
   Мілина / The Shallows (2016) AVC Ukr | Sub Ukr/Eng AngryBirdsUA  5 / 0   1.45 GB   2019-06-08 12:12 
   Мілина / The Shallows (2016) 1080p H.265 Ukr/Eng | Sub Ukr/Eng ukr_anonymous  2 / 0   3.4 GB   2018-07-31 12:56 
   Мілина / The Shallows (2016) Remux 1080p Ukr/Eng | Sub Ukr/Eng famous37  1 / 0   17.79 GB   2017-03-13 22:06 
   Мілина / The Shallows (2016) AVC Ukr/Eng | Sub Ukr/Eng igor911  3 / 0   2.85 GB   2016-09-21 04:29 
   Мілина / The Shallows (2016) 720p Ukr/Eng | Sub Ukr/Eng igor911  7 / 0   5.25 GB   2016-09-21 03:41 
   Мілина / The Shallows (2016) Gelios  3 / 0   1.45 GB   2016-09-20 23:43 
   Мілина / The Shallows (2016) 1080p Eng | Sub Ukr/Eng Aqbf  0 / 0   2.26 GB   2016-09-12 01:57 
Kel 
Новенький


З нами з: 31.10.10
Востаннє: 30.09.19
Повідомлень: 17

2017-10-02 19:55  
4k дякую!
Wide grin

famous37 
Відео Гуртом - фільмокрай
Відео Гуртом - фільмокрай


З нами з: 16.11.08
Востаннє: 10.10.19
Повідомлень: 961

2017-10-07 13:43  
Візьміть звідси нормальну звукову доріжку. Там тюнс ліцензія 125 кб/сек ліпша якість чим лайн 192 кб/сек https://toloka.to/t80539
armogun 
Попереджень: 1
Попереджень: 1 


З нами з: 04.05.13
Востаннє: 16.10.19
Повідомлень: 539

2017-10-08 14:50  
не розумію навіщо з ГД в 4к конвертувати, від цього якість не збільшитися, дебіли, бітрейт гігабайт в хвилину
igor911 
Модератор відео


З нами з: 18.01.08
Востаннє: 17.10.19
Повідомлень: 13522

2017-10-08 15:01  
armogun написано:
дебіли

Розумахо, полегше з ярликами.
Це ріп з UltraHD Blu-ray, трохи, НМСД, з занизькими налаштуваннями кодування (crf=20), але вписується в наші стандарти.
Чим і як знімали: http://www.imdb.com/title/tt4052882/technical?ref_=tt_ql_dt_7

Додано через 4 хвилини 39 секунд:

На оригінальному UltraHD блуреї відео має бітрейт 60829 kbps

ВАВУНЯ 
VIP


З нами з: 30.06.15
Востаннє: 14.10.19
Повідомлень: 265

2017-10-08 15:08  
чомусь на "Толоці" всі стрічки UHD 4K 2160p йдуть з кодеком H.265.
на жаль, не всі телевізори відтворюють H.265, а більшість відтворює лише .
це хтось навмисно робить такі "РІПи", чи то оригінали йдуть із таким кодеком?! О_о

з.і. колись на "Толоці" була розмова про 4к - багато хто підтримав, але із-за H.265 у мене цікавість до 4к, на жаль, зникла. Sad (1)

igor911 
Модератор відео


З нами з: 18.01.08
Востаннє: 17.10.19
Повідомлень: 13522

2017-10-08 15:15  
ВАВУНЯ написано:
це хтось навмисно робить такі "РІПи", чи то оригінали йдуть із таким кодеком?! О_о

оригінальне відео написано:
MPEG-H HEVC Video 60829 kbps 2160p / 23.976 fps / 16:9 / Main 10 Profile 5.1 High / 4:2:0 / 10 bits / HDR / BT.2020 /


Додано через 4 хвилини 17 секунд:

ВАВУНЯ написано:
але із-за H.265 у мене цікавість до 4к, на жаль, зникла.

це було прописано в стандарті Ultra HD Blu-ray https://en.wikipedia.org/wiki/Ultra_HD_Blu-ray і, відповідно має підтримуватись відповідним обладнанням, призначеним для його перегляду.

ВАВУНЯ 
VIP


З нами з: 30.06.15
Востаннє: 14.10.19
Повідомлень: 265

2017-10-08 15:25  
igor911
дивно, чому ж у мене 4к телевізор без підтримки H.265?! О_о
LG лажанули, чи що?!

igor911 
Модератор відео


З нами з: 18.01.08
Востаннє: 17.10.19
Повідомлень: 13522

2017-10-08 15:36  
ВАВУНЯ написано:
дивно, чому ж у мене 4к телевізор без підтримки H.265?

ти помилився, на сайті виробника зазначено його підтримку.

ВАВУНЯ 
VIP


З нами з: 30.06.15
Востаннє: 14.10.19
Повідомлень: 265

2017-10-08 17:11  
igor911
маю LG 40UB800V. на сайті бачу тільки:
підтримка HEVC: 4K 30P
підтримка кодека: : 4K 30P.
про H.265 жодної згадки.

igor911 
Модератор відео


З нами з: 18.01.08
Востаннє: 17.10.19
Повідомлень: 13522

2017-10-08 18:20  
ВАВУНЯ, HEVC=h.265
autxl 
Новенький


З нами з: 16.11.16
Востаннє: 13.10.19
Повідомлень: 5

2017-10-08 22:22  
Як би ще до 4К звук 5.1 тоді однозначно палець вверх.Але дякую.
ВАВУНЯ 
VIP


З нами з: 30.06.15
Востаннє: 14.10.19
Повідомлень: 265

2017-10-09 11:04  
igor911
Ігоре, ну, тоді не знаю в чому проблема. О_о
вперше із таким стикаюсь.
телевізор пише, що "такий формат не відтворюється".

alexus255 
Новенький


З нами з: 06.04.17
Востаннє: 10.10.19
Повідомлень: 11

2017-10-10 00:01  
Перші масові телевізори 4к взагалі виходили з HDMI 1.2, замість HDMI 2.0. Тобто на них не можна було подати через кабель той 4к ) А Ви тут про підтримуванні кодеки переживаєте. Все можливо. Хочете, щоб 100% було добре - беріть останні моделі з середнього-вищого сегменту.
vital1092 
Новенький


З нами з: 24.06.17
Востаннє: 16.10.19
Повідомлень: 5

2017-10-10 21:37  
В H.265 є багато профілів, нові фільми в 4k виходять в профілі part 10, його підтримують телевізори LG 2016 року випуску не нижче 7хх серії, така ж справа і в Samsung. Хочеш дивитися гарну картинку - плати, це просто маркетинг.
ВАВУНЯ 
VIP


З нами з: 30.06.15
Востаннє: 14.10.19
Повідомлень: 265

2017-10-11 15:14  
чи можна якось перекодувати Н.265 в Н.264? О_о

igor911 
Модератор відео


З нами з: 18.01.08
Востаннє: 17.10.19
Повідомлень: 13522

2017-10-11 15:24  
ВАВУНЯ написано:
чи можна якось перекодувати Н.265 в Н.264?

можна робити ріп з uhd блурея одразу в х264 8 біт, але вже без хдр'а. Ну і по часу це займе навіть на потужному компі годин більше 8-10-ти.

Dermish 
Новенький


З нами з: 11.05.15
Востаннє: 05.10.19
Повідомлень: 1

2017-10-28 21:28  
9GB 4К Фільм,ви смієтесь?40-50gb вага цього фільму в 4к.
Electroz 
Відео Гуртом - підтримка та поширення
Відео Гуртом - підтримка та поширення


З нами з: 18.09.14
Востаннє: 17.10.19
Повідомлень: 3596

2017-10-29 12:50  
Dermish
Babamin написано:
Це ріп з UltraHD Blu-ray

Ваш часовий пояс: GMT + 2 Години

Нова тема   Відповісти