Той, хто біжить по лезу. Сльози під дощем / A Blade Runner. Tears In The Rain (2017) 4k UKR/ENG

Нові коментарі

Нова тема   Відповісти
Автор Повідомлення
Gwean 
Відео Гуртом - фільмокрай
Відео Гуртом - фільмокрай


З нами з: 28.07.12
Востаннє: 25.01.21
Повідомлень: 947

2017-10-01 19:15  
Той, хто біжить по лезу. Сльози під дощем / A Blade Runner. Tears In The Rain (2017) 4k UKR/ENG



Жанр: фантастика, короткий метр
Країна: Південна Африка



Кіностудія / кінокомпанія: Andrew MacDonald Films
Режисер: Крістофер Ґрант Гарвей
Актори: Шон Камерон Міхаель, Рассел Савадьє

Сюжет:
Лос-Анжелес. Дистопічне майбутнє. Інженер у відставці Джон Кампф полює на репліканта Енді Сміта. Джон розуміє, що виявлення репліканта майже неможливе без спеціального обладнання.


Тривалість: 00:11:11

Якість:
Відео:
кодек:
розмір кадру: 3840x2160
бітрейт: ~13800 кб/с

Аудіо-1:
мова: українська
переклад: двоголосий закадровий
кодек:
бітрейт: ~223 кб/с

Аудіо-2:
мова: англійська
переклад: оригінал
кодек:
бітрейт: 256 кб/с

Скріншоти




Звіт Info
General
Unique ID : 197946460899783037408554193630568534803 (0x94EB1A054A8A797D8080A3F8D2525313)
Complete name : R:\Blade Runner Tears in the Rain\Tears In The Rain (A Blade Runner Short Film) ( 4k ).
Format :
Format version : Version 4 / Version 2
File size : 1.12 GiB
Duration : 11 min 13 s
Overall bit rate : 14.2 Mb/s
Encoded date : UTC 2017-10-01 16:25:45
Writing application : v7.0.0 ('Where We Going') 32bit built on Jun 9 2014 15:08:34
Writing library : libebml v1.3.0 + v1.4.1
Cover : Yes
Attachments : cover.jpg

Video
ID : 1
Format : AVC
Format/Info : Advanced Video Codec
Format profile : [email protected]
Format settings, CABAC : Yes
Format settings, ReFrames : 5 frames
Codec ID : V_MPEG4/ISO/AVC
Duration : 11 min 11 s
Bit rate : 13.8 Mb/s
Width : 3 840 pixels
Height : 2 160 pixels
Display aspect ratio : 16:9
Frame rate mode : Constant
Frame rate : 24.000 FPS
Color space : YUV
Chroma subsampling : 4:2:0
Bit depth : 8 bits
Scan type : Progressive
Bits/(Pixel*Frame) : 0.069
Stream size : 1.08 GiB (97%)
Writing library : core 148 r10 b97ae06
Encoding settings : cabac=1 / ref=5 / deblock=1:0:0 / analyse=0x3:0x113 / me=hex / subme=8 / psy=1 / psy_rd=1.00:0.00 / mixed_ref=1 / me_range=16 / chroma_me=1 / trellis=2 / 8x8dct=1 / cqm=0 / deadzone=21,11 / fast_pskip=1 / chroma_qp_offset=-2 / threads=67 / lookahead_threads=11 / sliced_threads=0 / nr=0 / decimate=1 / interlaced=0 / bluray_compat=0 / stitchable=1 / constrained_intra=0 / bframes=3 / b_pyramid=2 / b_adapt=1 / b_bias=0 / direct=3 / weightb=1 / open_gop=0 / weightp=2 / keyint=infinite / keyint_min=24 / scenecut=40 / intra_refresh=0 / rc_lookahead=50 / rc=crf / mbtree=1 / crf=20.0 / qcomp=0.60 / qpmin=5 / qpmax=69 / qpstep=4 / vbv_maxrate=24200 / vbv_bufsize=66000 / crf_max=0.0 / nal_hrd=none / filler=0 / ip_ratio=1.40 / aq=1:1.00
Default : Yes
Forced : Yes
Color range : Limited
Color primaries : BT.709
Transfer characteristics : BT.709
Matrix coefficients : BT.709

Audio #1
ID : 2
Format :
Format/Info : Advanced Audio Codec
Format profile : LC
Codec ID : A_AAC
Duration : 11 min 13 s
Bit rate : 223 kb/s
Channel(s) : 2 channels
Channel positions : Front: L R
Sampling rate : 48.0 kHz
Frame rate : 46.875 FPS (1024 spf)
Compression mode : Lossy
Delay relative to video : 9 ms
Stream size : 17.9 MiB (2%)
Title : двоголосий закадровий від Gwean і Твій татко
Language : Ukrainian
Default : Yes
Forced : Yes

Audio #2
ID : 3
Format :
Format/Info : Advanced Audio Codec
Format profile : LC
Codec ID : A_AAC
Duration : 11 min 11 s
Bit rate : 256 kb/s
Channel(s) : 2 channels
Channel positions : Front: L R
Sampling rate : 48.0 kHz
Frame rate : 46.875 FPS (1024 spf)
Compression mode : Lossy
Stream size : 20.5 MiB (2%)
Title : оригінальна доріжка
Language : English
Default : No
Forced : No
==========================================
Хронологія перегляду:

Оригінальний фільм:
Той, хто біжить по лезу / Blade Runner (1982)

Відокремлення, не відноситься до основного сюжету:
Той, хто біжить по лезу. Сльози під дощем / A Blade Runner. Tears In The Rain (2017)

Серія короткометражок, як передмова до Blade Runner 2049:
Той, хто біжить по лезу: Затемнення 2022 / Blade Runner: Black Out 2022 (2017)
Той, хто біжить по лезу 2049 – 2036: Відродження Nexus / Blade Runner 2049 – 2036: Nexus Dawn (2017)
Той, хто біжить по лезу 2049 – 2048: Нікуди тікати / Blade Runner 2049 – 2048: Nowhere to Run (2017)

Продовження оригіналу:
Той, хто біжить по лезу 2049 / Blade Runner 2049 (2017)
==========================================

Переклад та озвучення виконано:
Переклад: Maslinka
Ролі озвучили: Gwean і Твій Татко


Авторський реліз (завантажувати можна без реєстрації)
 Трекер:    Зареєстрований   

Завантажити / скачати фільм українською



відео для новачків



 Зареєстрований:   2017-10-01 19:15
 Розмір:   1.12 GB 
 Оцінка фільму:   9.4/10 (Голосів: 9)
   
Arch Enemy 
VIP


З нами з: 30.08.12
Востаннє: 24.01.21
Повідомлень: 1943

2017-10-01 19:20  
Ну хто б сумнівався у тому, чия тут буде озвучка)))
4к - саме те, що треба для таких фільмів.
Мегуста)))

Qui-Gon 
Свій


З нами з: 01.02.09
Востаннє: 25.01.21
Повідомлень: 58

2017-10-01 20:22  
Це типу третій міні фільм як 2036 і 2048?
bot 
робот


З нами з: 30.09.07
Востаннє: 26.05.05
Повідомлень: 26973

2017-10-01 21:17  
Тему перенесено з Фільми в HD до форуму Короткометражні


igor911

Arch Enemy 
VIP


З нами з: 30.08.12
Востаннє: 24.01.21
Повідомлень: 1943

2017-10-02 01:03  
Qui-Gon написано:
Це типу третій міні фільм як 2036 і 2048?

Ні, третій це аніме 2022, а цей окремий і незалежний від них.

Deaz92 
Новенький


З нами з: 18.09.12
Востаннє: 24.12.20
Повідомлень: 3

2017-10-06 02:04  
Arch Enemy
Не зовсім так))
Тут треба дивитись всі короткометражки перед фільмом. Але основна ця.

https://www.youtube.com/watch?v=yWEKFLxHbEM

https://www.youtube.com/watch?v=Ha9_-37pdSc

Ось посилання на ще дві

Ваш часовий пояс: GMT + 2 Години

Нова тема   Відповісти