Формула 1. Сезон 2017. Етап 15. Гран-Прі Малайзії. Гонка (01.10.2017) 1080p

Нові коментарі

Нова тема   Відповісти
Останній раз роздавалося KO4EBHUK (2020-10-17)
Автор Повідомлення
sergiyko.5 
VIP


З нами з: 25.02.16
Востаннє: 21.10.20
Повідомлень: 3588

2017-10-01 12:55  
Формула 1. Сезон 2017. Етап 15. Гран-Прі Малайзії. Гонка (01.10.2017) 1080p

Формула 1. Сезон 2017. Етап 15. Гран-Прі Малайзії. Гонка (01.10.2017) 1080p

Вид спорту: Перегони Формула 1
Телеканал: F1UA

Опис:
1 жовтня 2017 року відбулись перегони п'ятнадцятого етапу Формули 1 Гран-Прі Малайзії.


Тривалість: 01:48:12
Якість:

Відео: кодек: розмір кадру: 1920 х 1080 бітрейт: 3500 кб/с
Аудіо: мова: українська, російська, коментар: Максим Подзігун кодек: 2.0 бітрейт: 128 кб/с
Про файл:
General
Complete name : D:\Torrents\SPORT\F1.2017.Race.\F1.2017.15.Malaysia.Race..1080p.Ukr.mp4
Format : MPEG-4
Format profile : Base Media
Codec ID : isom (isom/iso2/avc1/mp41)
File size : 2.77 GiB
Duration : 1 h 48 min
Overall bit rate mode : Constant
Overall bit rate : 3 669 kb/s
Writing application : Lavf54.63.104

Video
ID : 1
Format : AVC
Format/Info : Advanced Video Codec
Format profile : [email protected]
Format settings, CABAC : Yes
Format settings, RefFrames : 2 frames
Codec ID : avc1
Codec ID/Info : Advanced Video Coding
Duration : 1 h 48 min
Bit rate mode : Constant
Bit rate : 3 500 kb/s
Width : 1 920 pixels
Height : 1 080 pixels
Display aspect ratio : 16:9
Frame rate mode : Constant
Frame rate : 25.000 FPS
Color space : YUV
Chroma subsampling : 4:2:0
Bit depth : 8 bits
Scan type : Progressive
Bits/(Pixel*Frame) : 0.068
Stream size : 2.65 GiB (95%)
Color range : Limited
Matrix coefficients : BT.601

Audio
ID : 2
Format :
Format/Info : Advanced Audio Codec
Format profile : LC
Codec ID : 40
Duration : 1 h 48 min
Bit rate mode : Constant
Bit rate : 160 kb/s
Channel(s) : 2 channels
Channel positions : Front: L R
Sampling rate : 44.1 kHz
Frame rate : 43.066 FPS (1024 SPF)
Compression mode : Lossy
Stream size : 124 MiB (4%)
Language : English
Default : Yes
Alternate group : 1
Скріншоти:


 Трекер:    Зареєстрований   

Завантажити / скачати торрент



відео для новачків



 Зареєстрований:   2017-10-01 12:55
 Розмір:   2.77 GB 
 Оцінка:   10/10 (Голосів: 6)
   
mcaz 
Новенький


З нами з: 26.03.17
Востаннє: 09.05.20
Повідомлень: 4

2017-10-01 15:03  
Оперативно, дякую!
geymer_ua 
Новенький


З нами з: 09.11.10
Востаннє: 18.10.20
Повідомлень: 5

2017-10-01 15:57  
Дякую за оперативність!
sergiyko.5 
VIP


З нами з: 25.02.16
Востаннє: 21.10.20
Повідомлень: 3588

2017-10-01 16:10  
geymer_ua
mcaz
Сьогодні перегони були о 10 годині за Києвом.

ssTAss 
Модератор музики


З нами з: 05.07.08
Востаннє: 21.10.20
Повідомлень: 16903

2017-10-01 19:13  
sergiyko.5 написано:
Аудіо: мова: українська, російська

якщо хто зареєстрований на тім F1UA, то може попросіть їх не змішувати мови
хай проводять дві трансляції паралельно, якщо так хочуть кацапську
p.s. знаю, її там мало, але реально бісить
от так би хто німецькою вклинювався
p.s.s. за реліз величезне дякую

Babygshack 
Новенький


З нами з: 07.05.18
Востаннє: 01.10.18
Повідомлень: 2

2018-05-07 11:39  
I have read it very well, feel very useful.

คาสิโนออนไลน์

Ваш часовий пояс: GMT + 2 Години

Нова тема   Відповісти