Століття Якова (Серії 1-4) (2016) 1080p

Нові коментарі

Нова тема   Відповісти
Автор Повідомлення
sergiyko.5 
VIP


З нами з: 25.02.16
Востаннє: 18.12.18
Повідомлень: 2012

2017-09-30 17:40  
Століття Якова (Серії 1-4) (2016) 1080p

Століття Якова (Серії 1-4) (2016) 1080p

Жанр: Історія, драма
Країна: Україна
Кінокомпанія: 1+1 Продакшн
Режисер: Бата Недич
Актори: Роман Луцький, Олександр Печериця, Людмила Загорська, Ганна Топчій, Тамара Морозова, Наталія Доля, Андрій Самінін, Олег Примогенов, Станіслав Боклан

Сюжет:
В основі сюжету – історія України очима волинського селянина-довгожителя Якова Меха. Ще з дитинства він був закоханий в Уляну, проте незважаючи на взаємність почуттів, батьки видали її заміж за хлопця із заможної родини. Не в силах змінити що-небудь, Яків їде з села. Він вступає до Війська Польського та зустрічає польську шляхтянку Зосю… У його долі – війни, полон і втрата близьких, але її головний підсумок – збереження людяності і здатності любити.
У «Столітті Якова» ми дивимося збоку на події, які відбувалися в Україні останні 100 років, через історію простої людини. Скрізь живуть люди, які просто хочуть жити і бути щасливими. Яків проти своєї волі був втягнутим в історичні конфлікти. Він не рве на собі сорочку, не намагається щось комусь довести або навчити когось жити. Він просто хоче створити сім'ю, виховувати дітей і працювати на своїй землі. Але обставини не дають це зробити, – каже режисер проекту Бата Недич.
Саундтреком до драми «Століття Якова» стала пісня культового українського гурту «Океан Ельзи» - «Не йди», автором слів та музики якої є Святослав Вакарчук.




Тривалість: 1 серія: 49:00 (цілком серій: 4)
Якість:

Відео: кодек: розмір кадру: 1920 х 1080 бітрейт: 4400 кб/с
Аудіо: мова: українська переклад: оригінал кодек: 2.0 бітрейт: 256 кб/с
Перелік серій:
Частина перша. Уляна
Частина друга. Зося
Частина третя. Війна
Частина четверта. Фінал
Про файл:
General
Unique ID : 253837190667723955959220935396510933650 (0xBEF743C0247394F6A136E7E3CCD42292)
Complete name : D:\Torrents\FILMS\Століття Якова S01 1080p \Століття Якова.S01E01.Частина перша.Уляна.1080p..
Format :
Format version : Version 4 / Version 2
File size : 1.60 GiB
Duration : 49 min 0 s
Overall bit rate : 4 660 kb/s
Movie name : Століття Якова 1080p by sergiyko
Encoded date : UTC 2017-09-30 15:22:47
Writing application : v16.0.0 ('Protest') 64-bit
Writing library : libebml v1.3.5 + v1.4.8
Cover : Yes
Attachments : cover.jpg

Video
ID : 1
Format : AVC
Format/Info : Advanced Video Codec
Format profile : [email protected]
Format settings, CABAC : Yes
Format settings, RefFrames : 6 frames
Codec ID : V_MPEG4/ISO/AVC
Duration : 49 min 0 s
Bit rate : 4 401 kb/s
Width : 1 920 pixels
Height : 1 080 pixels
Display aspect ratio : 16:9
Frame rate mode : Constant
Frame rate : 25.000 FPS
Color space : YUV
Chroma subsampling : 4:2:0
Bit depth : 8 bits
Scan type : Progressive
Bits/(Pixel*Frame) : 0.085
Stream size : 1.51 GiB (94%)
Title : Частина перша. Уляна
Writing library : core 142 r2491 24e4fed
Encoding settings : cabac=1 / ref=6 / deblock=1:0:0 / analyse=0x3:0x113 / me=hex / subme=7 / psy=1 / psy_rd=1.00:0.00 / mixed_ref=1 / me_range=16 / chroma_me=1 / trellis=1 / 8x8dct=1 / cqm=0 / deadzone=21,11 / fast_pskip=1 / chroma_qp_offset=-2 / threads=12 / lookahead_threads=2 / sliced_threads=0 / nr=0 / decimate=1 / interlaced=0 / bluray_compat=0 / constrained_intra=0 / bframes=3 / b_pyramid=2 / b_adapt=1 / b_bias=0 / direct=1 / weightb=1 / open_gop=0 / weightp=2 / keyint=100 / keyint_min=10 / scenecut=40 / intra_refresh=0 / rc_lookahead=40 / rc=crf / mbtree=1 / crf=22.0 / qcomp=0.60 / qpmin=0 / qpmax=69 / qpstep=4 / vbv_maxrate=10000 / vbv_bufsize=20000 / crf_max=0.0 / nal_hrd=none / filler=0 / ip_ratio=1.41 / aq=1:1.00
Language : Ukrainian
Default : Yes
Forced : No

Audio
ID : 2
Format :
Format/Info : Advanced Audio Codec
Format profile : LC
Codec ID : A_AAC
Duration : 49 min 0 s
Bit rate : 256 kb/s
Channel(s) : 2 channels
Channel positions : Front: L R
Sampling rate : 44.1 kHz
Frame rate : 43.066 FPS (1024 SPF)
Compression mode : Lossy
Delay relative to video : -80 ms
Stream size : 89.7 MiB (5%)
Title : Рідна мова
Language : Ukrainian
Default : Yes
Forced : No
Скріншоти:


Золотий реліз (завантажене не впливає на рейтинг)
 Трекер:    Зареєстрований   

Завантажити / скачати український серіал



відео для новачків



 Зареєстрований:   2017-09-30 17:40
 Розмір:   6.62 GB 
 Оцінка серіалу:   8.9/10 (Голосів: 16)
   
Ваш часовий пояс: GMT + 2 Години

Нова тема   Відповісти