Марсіянин [Розширена версія] / The Martian [Extended Cut] (2015) UHD 4K 2160p Ukr/Eng | Sub Ukr/Eng

Нові коментарі

Нова тема   Відповісти
Автор Повідомлення
Babamin 
Свій


З нами з: 29.12.15
Востаннє: 19.02.19
Повідомлень: 50

2017-09-29 16:44  
Марсіянин [Розширена версія] / The Martian [Extended Cut] (2015) UHD 4K 2160p Ukr/Eng | Sub Ukr/Eng

Марсіянин [Розширена версія] / The Martian [Extended Cut] (2015) UHD 4K 2160p Ukr/Eng | Sub Ukr/Eng


Жанр: фантастика, комедія, пригодницький, драма
Країна: США, Велика Британія



Кінокомпанія: Twentieth Century Fox
Режисер: Рідлі Скотт
Актори: Метт Деймон, Джессіка Честейн, Кейт Мара, Майкл Пенья, Себастіан Стен, Шон Бін, Дональд Гловер, Чіветель Еджифор, Джефф Деніелс, Аксель Хенні та інші.

Сюжет:
Марк Вотні - один з членів експедиції "Арес-3" на Марс. Щоб уникнути загибелі людей під час лютої бурі, було прийнято рішення всю місію евакуювати. Однак не всі встигли вчасно покинути червону планету. На Землі прийшли до висновку, що Марк Вотні трагічно загинув під час сильної бурі, хоча насправді він живий. У нього найважча місія в історії людства: вижити на чужій планеті одному, з обмеженою кількістю продуктів і без можливості зв'язатися з домом. До наступної місії на Марс потрібно чекати як мінімум чотири роки. Марку доведеться використовувати всю свою кмітливість і навички, щоб не тільки повідомити про те, що він не помер, але і постаратися зберегти своє життя...


Тривалість: 02:31:20 [Розширена версія] - порівняння з театральною версією
Якість: UltraHD 4K 2160p
Контейнер:

Відео:
кодек: H.265
розмір кадру: 3840 х 1600
бітрейт: 13 Мб/с
бітова глибина: 10 біт
кольоровий простір: BT.2020 (HDR)

Аудіо # 1:
мова: українська, англійська
переклад: професійний дубльований (Blu-ray EUR) з вставками оригіналу
кодек: 5.1
бітрейт: 448 кб/с

Аудіо # 2:
мова: англійська
переклад: оригінал
кодек: 5.1
бітрейт: 640 кб/с

Субтитри # 1-2: (форсовані (на неозвучені епізоди розширеної версії), повні)
мова: українська
тип: програмні (м'які)
формат: *.srt

Субтитри # 3-5:
мова: англійська (повні, SDH, SDH-Colored)
тип: програмні (м'які)
формат: *.srt
Info:
Complete name : The.Martian.2015.UHD.HDR..HEVC.4K.2160p-Toloka.
Format :
Format version : Version 4 / Version 2
File size : 14.9 GiB
Duration : 2 h 31 min
Overall bit rate : 14.1 Mb/s
Movie name : The Martian (2015) HEVC HDR10 UHD- 2160p (iS)
Encoded date : UTC 2017-09-29 13:36:18
Writing application : v14.0.0 ('Flow') 64bit
Writing library : libebml v1.3.4 + v1.4.5

Video
ID : 1
Format : HEVC
Format/Info : High Efficiency Video Coding
Format profile : Main [email protected]@High
Codec ID : V_MPEGH/ISO/HEVC
Duration : 2 h 31 min
Bit rate : 13.0 Mb/s
Width : 3 840 pixels
Height : 1 600 pixels
Display aspect ratio : 2.40:1
Frame rate mode : Constant
Frame rate : 23.976 (24000/1001) FPS
Color space : YUV
Chroma subsampling : 4:2:0
Bit depth : 10 bits
Bits/(Pixel*Frame) : 0.088
Stream size : 13.7 GiB (92%)
Writing library : x265 2.5+16-bac53338585c:[Windows][GCC 6.2.1][64 bit] 10bit
Encoding settings : cpuid=1173503 / frame-threads=3 / numa-pools=8 / wpp / no-pmode / no-pme / no-psnr / no-ssim / log-level=2 / input-csp=1 / input-res=3840x1600 / interlace=0 / total-frames=209760 / level-idc=51 / high-tier=1 / uhd-bd=0 / ref=4 / no-allow-non-conformance / repeat-headers / annexb / no-aud / no-hrd / info / hash=0 / no-temporal-layers / no-open-gop / min-keyint=23 / keyint=250 / bframes=4 / b-adapt=2 / b-pyramid / bframe-bias=0 / rc-lookahead=96 / lookahead-slices=4 / scenecut=40 / no-intra-refresh / ctu=64 / min-cu-size=8 / no-rect / no-amp / max-tu-size=32 / tu-inter-depth=1 / tu-intra-depth=1 / limit-tu=0 / rdoq-level=2 / dynamic-rd=0.00 / no-ssim-rd / signhide / no-tskip / nr-intra=0 / nr-inter=0 / no-constrained-intra / no-strong-intra-smoothing / max-merge=5 / limit-refs=3 / limit-modes / me=3 / subme=7 / merange=57 / temporal-mvp / weightp / no-weightb / no-analyze-src-pics / deblock=0:0 / no-sao / no-sao-non-deblock / rd=4 / no-early-skip / no-rskip / no-fast-intra / no-tskip-fast / no-cu-lossless / no-b-intra / no-splitrd-skip / rdpenalty=0 / psy-rd=2.00 / psy-rdoq=5.00 / no-rd-refine / analysis-reuse-mode=0 / no-lossless / cbqpoffs=0 / crqpoffs=0 / rc=crf / crf=21.0 / qcomp=0.60 / qpstep=4 / stats-write=0 / stats-read=0 / vbv-maxrate=160000 / vbv-bufsize=160000 / vbv-init=0.9 / crf-max=0.0 / crf-min=0.0 / ipratio=1.20 / pbratio=1.10 / aq-mode=0 / aq-strength=0.00 / no-cutree / zone-count=0 / no-strict-cbr / qg-size=64 / no-rc-grain / qpmax=69 / qpmin=0 / no-const-vbv / sar=0 / overscan=0 / videoformat=5 / range=0 / colorprim=9 / transfer=16 / colormatrix=9 / chromaloc=0 / display-window=0 / master-display=G(13250,34500)B(7500,3000)R(34000,16000)WP(15635,16450)L(10000000,0) / max-cll=0,0 / min-luma=0 / max-luma=1023 / log2-max-poc-lsb=8 / vui-timing-info / vui-hrd-info / slices=1 / opt-qp-pps / opt-ref-list-length-pps / no-multi-pass-opt-rps / scenecut-bias=0.05 / no-opt-cu-delta-qp / no-aq-motion / hdr / no-hdr-opt / no-dhdr10-opt / analysis-reuse-level=5 / scale-factor=0 / refine-intra=0 / refine-inter=0 / refine-mv=0 / no-limit-sao / ctu-info=0
Language : English
Default : Yes
Forced : No
Color range : Limited
Color primaries : BT.2020
Transfer characteristics : SMPTE ST 2084
Matrix coefficients : BT.2020 non-constant
Mastering display color pri : R: x=0.680000 y=0.320000, G: x=0.265000 y=0.690000, B: x=0.150000 y=0.060000, White point: x=0.312700 y=0.329000
Mastering display luminance : min: 0.0000 cd/m2, max: 1000.0000 cd/m2

Audio #1
ID : 2
Format : AC-3
Format/Info : Audio Coding 3
Format settings, Endianness : Big
Codec ID : A_AC3
Duration : 2 h 31 min
Bit rate mode : Constant
Bit rate : 448 kb/s
Channel(s) : 6 channels
Channel positions : Front: L C R, Side: L R, LFE
Sampling rate : 48.0 kHz
Frame rate : 31.250 FPS (1536 spf)
Bit depth : 16 bits
Compression mode : Lossy
Stream size : 485 MiB (3%)
Title : 5.1 @ 448 Kbps - UKR (Dub) | «Postmodern» - Blu-Ray EUR
Language : Ukrainian
Service kind : Complete Main
Default : Yes
Forced : No

Audio #2
ID : 3
Format : AC-3
Format/Info : Audio Coding 3
Format settings, Endianness : Big
Codec ID : A_AC3
Duration : 2 h 31 min
Bit rate mode : Constant
Bit rate : 640 kb/s
Channel(s) : 6 channels
Channel positions : Front: L C R, Side: L R, LFE
Sampling rate : 48.0 kHz
Frame rate : 31.250 FPS (1536 spf)
Bit depth : 16 bits
Compression mode : Lossy
Stream size : 693 MiB (5%)
Language : English
Service kind : Complete Main
Default : No
Forced : No

Text #1
ID : 4
Format : UTF-8
Codec ID : S_TEXT/UTF8
Codec ID/Info : UTF-8 Plain Text
Duration : 2 h 25 min
Bit rate : 11 b/s
Count of elements : 236
Stream size : 12.0 KiB (0%)
Title : forced
Language : Ukrainian
Default : Yes
Forced : Yes

Text #2
ID : 5
Format : UTF-8
Codec ID : S_TEXT/UTF8
Codec ID/Info : UTF-8 Plain Text
Duration : 2 h 29 min
Bit rate : 93 b/s
Count of elements : 1864
Stream size : 103 KiB (0%)
Title : full
Language : Ukrainian
Default : No
Forced : No

Text #3
ID : 6
Format : UTF-8
Codec ID : S_TEXT/UTF8
Codec ID/Info : UTF-8 Plain Text
Duration : 2 h 25 min
Bit rate : 61 b/s
Count of elements : 2092
Stream size : 66.0 KiB (0%)
Title : BD
Language : English
Default : No
Forced : No

Text #4
ID : 7
Format : UTF-8
Codec ID : S_TEXT/UTF8
Codec ID/Info : UTF-8 Plain Text
Duration : 2 h 25 min
Bit rate : 66 b/s
Count of elements : 2256
Stream size : 71.3 KiB (0%)
Title : SDH
Language : English
Default : No
Forced : No

Text #5
ID : 8
Format : UTF-8
Codec ID : S_TEXT/UTF8
Codec ID/Info : UTF-8 Plain Text
Duration : 2 h 25 min
Bit rate : 78 b/s
Count of elements : 2256
Stream size : 84.1 KiB (0%)
Title : SDH-Colored
Language : English
Default : No
Forced : No

Menu
00:00:00.000 : :Chapter 01
00:03:22.285 : :Chapter 03
00:10:15.156 : :Chapter 05
00:15:24.590 : :Chapter 07
00:18:25.187 : :Chapter 09
00:21:58.817 : :Chapter 11
00:24:52.532 : :Chapter 13
00:29:17.130 : :Chapter 15
00:32:01.085 : :Chapter 17
00:34:45.541 : :Chapter 19
00:40:08.155 : :Chapter 21
00:42:48.315 : :Chapter 23
00:47:50.075 : :Chapter 25
00:51:12.736 : :Chapter 27
00:58:03.396 : :Chapter 29
01:01:41.614 : :Chapter 31
01:04:24.944 : :Chapter 33
01:08:54.254 : :Chapter 35
01:11:54.101 : :Chapter 37
01:16:33.505 : :Chapter 39
01:22:05.503 : :Chapter 41
01:26:19.715 : :Chapter 43
01:37:47.653 : :Chapter 45
01:44:36.478 : :Chapter 47
01:50:38.381 : :Chapter 49
01:53:22.670 : :Chapter 51
01:59:17.566 : :Chapter 53
02:03:51.006 : :Chapter 55
02:07:32.352 : :Chapter 57
02:14:24.723 : :Chapter 59
02:20:48.397 : :Chapter 61
02:23:11.832 : :Chapter 63
Скріншоти:









Джерело: &
Подяка пану Demrandir за аудіо доріжку та субтитри.


 Трекер:    Зареєстрований   

Завантажити / скачати фільм українською



відео для новачків



 Зареєстрований:   2017-09-29 16:44
 Розмір:   14.88 GB 
 Оцінка фільму:   9.2/10 (Голосів: 28)
   
Інші релізи
   Марсіянин [Розширена версія] / The Martian [Extended Cut] (2015) 1080p H.265 Ukr/Eng | Sub Ukr/Eng ukr_anonymous  9 / 0   6.44 GB   2018-06-26 13:22 
   Марсіянин / The Martian (2015) UHD Remux 4K 2160p Ukr/Eng | Sub Ukr/Eng Babamin  4 / 0   40.29 GB   2017-09-12 12:04 
   Марсіянин [Розширена версія] / The Martian [Extended Cut] (2015) AVC Ukr/Eng | Sub Ukr/Eng Kris  14 / 0   4.47 GB   2017-07-15 19:26 
   Марсіянин [Розширена версія] / The Martian [Extended Cut] (2015) Ukr | Sub Ukr Demrandir  6 / 0   2.43 GB   2017-07-10 13:55 
   Марсіянин [Розширена версія] / The Martian [Extended Cut] (2015) [5.1 ] Український дубляж + вставки оригіналу | Sub Ukr Demrandir  0 / 0   485 MB   2017-07-10 13:39 
   Марсіянин / The Martian (2015) 720p-mini (60 fps) Drool  2 / 0   5.54 GB   2016-01-19 13:49 
   Марсіянин / The Martian (2015) AVC Ukr/Eng | Sub Ukr/Eng BASTERD-94  7 / 0   2.91 GB   2016-01-13 22:30 
   Марсіянин / The Martian (2015) Remux 1080p Ukr/Eng | Sub Ukr/Eng famous37  3 / 0   32.09 GB   2016-01-13 20:14 
   Марсіянин / The Martian (2015) 720p-mini Drool  4 / 0   2.63 GB   2016-01-12 23:01 
   Марсіянин / The Martian (2015) 1080p Ukr/Eng | Sub Ukr/Eng 11FrYkT  4 / 0   16.09 GB   2016-01-09 23:04 
   Марсіянин / The Martian (2015) 720p Ukr/Eng | Sub Ukr/Eng 11FrYkT  6 / 0   7.09 GB   2016-01-09 22:46 
   Марсіянин / The Martian (2015) Ukr/Eng | Sub Ukr/Eng Gelios  10 / 0   2.18 GB   2016-01-09 22:40 
   Марсіянин / The Martian (2015) 1080p 3D Ukr/Eng | Sub Ukr/Eng [Half SideBySide] -VipeR-  3 / 0   13.13 GB   2016-01-03 17:25 
MAGnitos 
Новенький


З нами з: 30.10.16
Востаннє: 19.02.19
Повідомлень: 22

2017-09-30 21:29  
Не знайшов тут інформації чи відрізняється від звичайної версії.
Babamin 
Свій


З нами з: 29.12.15
Востаннє: 19.02.19
Повідомлень: 50

2017-09-30 23:47  
MAGnitos написано:
Не знайшов тут інформації чи відрізняється від звичайної версії.

додатковими сценами

MAGnitos 
Новенький


З нами з: 30.10.16
Востаннє: 19.02.19
Повідомлень: 22

2017-10-01 10:41  
Babamin написано:
додатковими сценами

Скільки часу додано? Скільки таких епізодів?
Жодної інформації!

igor911 
Відео Гуртом
Відео Гуртом


З нами з: 18.01.08
Востаннє: 20.02.19
Повідомлень: 12054

2017-10-01 11:56  
MAGnitos, (порівняння з театральною версією)

Додано через 29 хвилин 25 секунд:

Babamin написано:
кольоровий простір: BT.2020 (HDR)

Info написано:
no-hrd ... / hdr / no-hdr-opt / no-dhdr10-opt /

то є тут HDR чи немає?

Babamin 
Свій


З нами з: 29.12.15
Востаннє: 19.02.19
Повідомлень: 50

2017-10-01 18:42  
igor911 написано:
то є тут HDR чи немає?

HDR тут є, перевірено на UHD 4К TV LG

Kovex 
VIP


З нами з: 01.09.09
Востаннє: 19.02.19
Повідомлень: 471

2017-10-01 23:47  
Підкажіть будь ласка, чому Daum Pot плеєр, VLC чи вбудовані в він 10х64 програвач та muvies&tv плеєри відкривають тільки аудіо доріжку?
MAGnitos 
Новенький


З нами з: 30.10.16
Востаннє: 19.02.19
Повідомлень: 22

2017-10-04 20:53  
igor911 написано:
(порівняння з театральною версією)

Дякую! Саме це хотів отримати.

AAAA1602 
Новенький


З нами з: 23.02.16
Востаннє: 09.09.18
Повідомлень: 7

2017-12-04 04:19  
Питання від "чайніка": чи зможу я подивитись, якщо у мене монітор 1920 х 1080?
igor911 
Відео Гуртом
Відео Гуртом


З нами з: 18.01.08
Востаннє: 20.02.19
Повідомлень: 12054

2017-12-04 10:01  
AAAA1602, так.
Drool 
VIP


З нами з: 17.04.10
Востаннє: 21.02.19
Повідомлень: 1508

2017-12-06 23:20  
Але сенсу не буде ніякого Wide grin
mutomba 
VIP


З нами з: 20.10.13
Востаннє: 20.02.19
Повідомлень: 335

2017-12-21 21:22  
Я так розумію, що небагато хардових програвачів здатні на програвання h.265...
Де б взяти звичайний 1080 ріп розширеної версії?

Різниця театралки та розширеної версій
https://www.movie-censorship.com/report.php?ID=944219

Ваш часовий пояс: GMT + 2 Години

Нова тема   Відповісти