Брати Гадюкіни - Ми - хлопці з Бандершtaдtу ( 1992 ) [Flac VinylRip] | Rock

Нові коментарі

Нова тема   Відповісти
Автор Повідомлення
Gienek_Lwow 
VIP


З нами з: 28.09.10
Востаннє: 18.10.17
Повідомлень: 549

2017-09-28 20:21  
Брати Гадюкіни - Ми - хлопці з Бандершtaдtу ( 1992 ) [Flac VinylRip] | Rock

Брати Гадюкіни - Ми - хлопці з Бандершtaдtу ( 1992 ) [Flac VinylRip] | Rock


Стиль: Rock, Punk-Rock, Rock'n'Roll
Країна, місто: Україна, Львів
Видавець: Аудіо Україна ‎– LPP 0040
Виконавці:
Сергій Кузьмінський – спів, іоніка, губна гармоніка, перкусія, оркестровий бубен
Андрій Партика – гітара, губна гармоніка, стрічковий ревербератор
Ігор Мельничук – бас-гітара, підспів
Михайло Лундін – ударні, підспів
Павло Крохмальов – іоніка
Мідна група підтримки “Пиво, баби, папіроси”:
Олег Качечка – труба
Богдан Ватащук (Мордент) – тромбон
Степан Коваль (Зьома) – саксофон
Аранжування і продюсерство: Брати Гадюкіни
Директор групи: Оксана Мархасьова
Виконавчий продюсер: Юрій Яковлєв
Звукорежисер – Михайло Дідик
Пісні:
    Червона Сторона
    A1 На Україні лад і спокій
    A2 Мамуню, рехтуйте весілля
    A3 Червона фіра
    A4 Коровай
    Чорна Сторона
    B1 Сорок пачок "Верховини"
    B2 Мужчина та’як я
    B3 Місячне сяйво твого тіла
    B4 Ми - хлопці з Бандерштату

Тривалість: 00:35:49
Мова: українська
Аудіо-кодек: FLAC
Бітрейт: 5047 кб/с
Джерело: Власний ріп платівки
Додаткова інформація:
Стан платівки NM, вертушка Audio-technika LP120, головка Philips 401 II, фонокоректор ламповий (саморобний), карта звукова [email protected], .cue вбудований. У папці Photo - фотографії конверта і п'ятаків.
spectr
Брати Гадюкіни - Ми - хлопці з Бандершtaдtу ( 1992 ) [Flac VinylRip] | Rock


Якщо Ви справді бажаєте підтримати українське - після прослуховування, якщо музика вам сподобалась, придбайте ліцензійний диск. Підтримаймо вітчизняних виконавців!


 Трекер:    Зареєстрований   

Завантажити / скачати українську музику



відео для новачків



 Зареєстрований:   2017-09-28 20:21
 Розмір:   1.26 GB 
 Оцінка музики:   10/10 (Голосів: 8)
   
ssTAss 
Модератор музики


З нами з: 05.07.08
Востаннє: 18.10.17
Повідомлень: 12087

2017-09-28 22:27  
от не знаю, що з Вами робити
ріп цієї платівки у флаку вже є https://toloka.to/t39338
p.s. бітрейт і спектр (хоча там вище один цифровий шум) бачив

Gienek_Lwow 
VIP


З нами з: 28.09.10
Востаннє: 18.10.17
Повідомлень: 549

2017-09-28 22:55  
ssTAss написано:
p.s. бітрейт і спектр (хоча там вище один цифровий шум) бачив


А Ви послухайте... Динамічний діапазон мого ріпу (однакових ріпів не буває):
Dinamic Range

foobar2000 1.2.6 / Измерение динамического диапазона 1.1.1
дата измерения: 2017-09-28 22:59:07

--------------------------------------------------------------------------------
Статистика для: ?-Сорок пачок Верховини
Количество сэмплов: 38645760
Длина: 3:21
--------------------------------------------------------------------------------

Левый Правый

Пик: -1.14 дБ --- -1.79 дБ
Средняя RMS: -17.36 дБ --- -16.59 дБ
Канал DR: 14.36 дБ --- 12.83 дБ
--------------------------------------------------------------------------------

Официальное значение DR: DR14

Частота дискретизации: 192000 Гц
Каналов: 2
Бит на сэмпл: 24
Битрейт: 5047 kbps
Кодек: FLAC
================================================================================

foobar2000 1.2.6 / Измерение динамического диапазона 1.1.1
дата измерения: 2017-09-28 22:59:48

--------------------------------------------------------------------------------
Проанализировано: Брати Гадюкіни / Ми - хлопці з Бандершtaдtу
--------------------------------------------------------------------------------

DR Пик RMSДлина Трек
--------------------------------------------------------------------------------
DR13 -2.12 дБ -17.70 дБ 4:07 ?-У країні лад і спокій
DR14 -1.49 дБ -17.49 дБ 3:47 ?-Мамуню, рехтуйте весілля
DR14 -1.96 дБ -19.02 дБ 3:43 ?-Мужчина та'як я
DR15 -1.32 дБ -19.02 дБ 4:44 ?-Місячне сяйво твого тіла
--------------------------------------------------------------------------------

Количество треков: 4
Официальное значение DR: DR14

Частота дискретизации: 192000 Гц
Каналов: 2
Бит на сэмпл: 24
Битрейт: 5047 kbps
Кодек: FLAC
================================================================================

--------------------------------------------------------------------------------
Проанализировано: Брати Гадюкіни / Ми - хлопці з Бандершtaдtу
--------------------------------------------------------------------------------

DR Пик RMSДлина Трек
--------------------------------------------------------------------------------
DR15 -2.45 дБ -20.37 дБ 6:27 ?-Червоно-сіре
DR14 -1.69 дБ -17.86 дБ 4:09 ?-Коровай
DR15 -1.52 дБ -18.30 дБ 5:30 ?-Ми - хлопці з Бандерштату
--------------------------------------------------------------------------------

Количество треков: 3
Официальное значение DR: DR15

Частота дискретизации: 192000 Гц
Каналов: 2
Бит на сэмпл: 24
Битрейт: 5047 kbps
Кодек: FLAC
================================================================================

Ваш часовий пояс: GMT + 2 Години

Нова тема   Відповісти