Soom - Ніч на полонині (2014) [FLAC] | Sludge / Doom Metal

Нові коментарі

Нова тема   Відповісти
Автор Повідомлення
Anonymous 







2017-09-28 14:18  
Soom - Ніч на полонині (2014) [FLAC] | Sludge / Doom Metal

Soom - Ніч на полонині (2014) [FLAC] | Sludge / Doom Metal

Стиль: Sludge / Stoner / Doom Metal
Країна, місто: Україна, Харків
Видавець:
Виконавці:
Kova - шум, вокал
Erea - ударні
Tomrer - бас
Пісні:
    01. Ніч на полонині: Невидима сокира 07:14
    02. Дід 07:14
    03. Ніч на полонині: Свято рослини 02:35
    04. Дивний сон 06:52
    05. Ніч на полонині: Пісок 00:50
    06. Камінь 06:29
    07. Ніч на полонині: Слобожани 01:44
    08. Електричний мольфар 08:11
    09. Ніч на полонині: Остання подорож 02:28
    10. Панахида 11:02

Тривалість: 00:54:42
Мова: українська
Аудіо-кодек: FLAC
Бітрейт: 941 kbps
Джерело: Soulseek
Додаткова інформація:
Цей альбом колись стягнув з soulseek'у. Хоча й лоґ відсутній, проте він присутній у теґах, тому я гадаю що це рип з диску. Схоже на те що він був знятий образом, але потім його порізали на стежки. Тож я додам той лоґ з теґів, а також спектрограму однієї зі стежок, про всяк випадок.
log
Exact Audio Copy V1.1 from 23. June 2015

EAC extraction logfile from 22. February 2016, 10:36

Soom / Night On Meadow

Used drive : TSSTcorpCDDVDW SH-S223F Adapter: 1 ID: 0

Read mode : Secure
Utilize accurate stream : Yes
Defeat audio cache : Yes
Make use of C2 pointers : No

Read offset correction : 6
Overread into Lead-In and Lead-Out : No
Fill up missing offset samples with silence : Yes
Delete leading and trailing silent blocks : No
Null samples used in CRC calculations : Yes
Used interface : Native Win32 interface for Win NT & 2000

Used output format : Internal WAV Routines
Sample format : 44.100 Hz; 16 Bit; Stereo

TOC of the extracted CD

Track | Start | Length | Start sector | End sector
---------------------------------------------------------
1 | 0:00.00 | 7:08.69 | 0 | 32168
2 | 7:08.69 | 7:16.58 | 32169 | 64926
3 | 14:25.52 | 2:32.14 | 64927 | 76340
4 | 16:57.66 | 7:05.20 | 76341 | 108235
5 | 24:03.11 | 0:43.58 | 108236 | 111518
6 | 24:46.69 | 6:30.49 | 111519 | 140817
7 | 31:17.43 | 1:44.08 | 140818 | 148625
8 | 33:01.51 | 8:11.34 | 148626 | 185484
9 | 41:13.10 | 2:28.22 | 185485 | 196606
10 | 43:41.32 | 11:00.00 | 196607 | 246106

Range status and errors

Selected range

Filename Z:\[MeTaLMaDNeSS.TeaM]\Soom - Night On Meadow.wav

Peak level 85.1 %
Extraction speed 3.5 X
Range quality 100.0 %
Test CRC 304ABF77
Copy CRC 304ABF77
Copy OK

No errors occurred

AccurateRip summary

Track 1 not present in database
Track 2 not present in database
Track 3 not present in database
Track 4 not present in database
Track 5 not present in database
Track 6 not present in database
Track 7 not present in database
Track 8 not present in database
Track 9 not present in database
Track 10 not present in database

None of the tracks are present in the AccurateRip database

End of status report

---- CUETools DB Plugin V2.1.6

[CTDB TOCID: NqcFhN5NXYfbJbbe0X_0AF1DrIU-] found
Submit result: NqcFhN5NXYfbJbbe0X_0AF1DrIU- has been confirmed
Track | CTDB Status
1 | (1/1) Accurately ripped
2 | (1/1) Accurately ripped
3 | (1/1) Accurately ripped
4 | (1/1) Accurately ripped
5 | (1/1) Accurately ripped
6 | (1/1) Accurately ripped
7 | (1/1) Accurately ripped
8 | (1/1) Accurately ripped
9 | (1/1) Accurately ripped
10 | (1/1) Accurately ripped

==== Log checksum 0A7724E6ED050FD68FE1AE64836B6D3C7783BEEF7FE935EA4D41312A4E8AF439 ====
spectrogram
Soom - Ніч на полонині (2014) [FLAC] | Sludge / Doom Metal


Срібний реліз (на рейтинг впливає 50% завантаженого)
 Трекер:    Зареєстрований   

Завантажити / скачати українську музику



відео для новачків



 Зареєстрований:   2017-09-28 14:18
 Розмір:   368 MB 
 Оцінка музики:   3.5/10 (Голосів: 14)
   
Ваш часовий пояс: GMT + 2 Години

Нова тема   Відповісти