Людина-павук: Повернення додому / Spider-Man: Homecoming (2017) Ukr/Eng | Sub Ukr/Eng

Нові коментарі

Нова тема   Відповісти
Автор Повідомлення
Anonymous 







2017-09-28 01:31  
Людина-павук: Повернення додому / Spider-Man: Homecoming (2017) Ukr/Eng | Sub Ukr/Eng


«Коли закінчується одна історія, починається інша»
Інші українські постери:





Жанр: бойовик, пригоди, фантастика
Країна: США



Кінокомпанія: Columbia Pictures, Marvel Studios, Pascal Pictures
Режисер: Джонатан Вотс
Актори: Том Голланд, Роберт Дауні мол., Майкл Кітон, Маріса Томей, Джон Фавро, Зендея Коулман, Дональд Гловер, Джейкоб Баталон

Сюжет:
Після історичної зустрічі з командою Месників Пітер Паркер повертається додому, намагаючись зажити нормальним життям під опікою своєї тітки Мей. Але тепер за Пітером наглядає ще дещо... Тоні Старк бачив Людину-Павука у справі і повинен стати його наставником. Коли новий лиходій Стерв'ятник загрожує знищити все, що дороге Пітеру, приходить час довести всім, що таке справжній супергерой.


Тривалість: 02:13:26
Якість: [Amazon]
Відео:
кодек:
розмір кадру: 720 х 304
бітрейт: 1685 кб/с

Аудіо # 1:
мова: українська
переклад: професійний дубльований
кодек: 2.0
бітрейт: 192 кб/с
примітка: Тут усунуто прикрий ґандж з відсутністю українського дубляжу на проміжку 00:51:07 - 01:05:08

Аудіо # 2:
мова: англійська
переклад: оригінал
кодек: 5.1
бітрейт: 448 кб/с

Субтитри # 1-2:
мова: українська (форсовані, повні)
тип: програмні (м'які)
формат: *.srt

Субтитри # 3:
мова: англійська
тип: програмні (м'які)
формат: *.srt
Info
Код:
General
Complete name               : Spider-Man. Homecoming (2017) [Ukr,Eng] [Hurtom].avi
Format                      : AVI
Format/Info                 : Audio Video Interleave
Format profile              : OpenDML
File size                   : 2.18 GiB
Duration                    : 2 h 13 min
Overall bit rate            : 2 343 kb/s
Movie name                  : Людина-павук: Повернення додому / Spider-Man: Homecoming (2017) [Ukr,Eng] [Hurtom]
Writing application         : VirtualDubModUkr 1.5.10.2 (build 2542/release)
Writing library             : VirtualDubMod build 2542/release
Comment                     : https://toloka.to/t84282

Video
ID                          : 0
Format                      : MPEG-4 Visual
Format profile              : Advanced [email protected]
Format settings             : BVOP1
Format settings, BVOP       : 1
Format settings, QPel       : No
Format settings, GMC        : No warppoints
Format settings, Matrix     : Default (MPEG)
Codec ID                    :
Codec ID/Hint               :
Duration                    : 2 h 13 min
Bit rate                    : 1 685 kb/s
Width                       : 720 pixels
Height                      : 304 pixels
Display aspect ratio        : 2.35:1
Frame rate                  : 23.976 (24000/1001) FPS
Color space                 : YUV
Chroma subsampling          : 4:2:0
Bit depth                   : 8 bits
Scan type                   : Progressive
Compression mode            : Lossy
Bits/(Pixel*Frame)          : 0.321
Stream size                 : 1.57 GiB (72%)
Writing library             : 67

Audio #1
ID                          : 1
Format                      : AC-3
Format/Info                 : Audio Coding 3
Format settings, Endianness : Big
Codec ID                    : 2000
Duration                    : 2 h 13 min
Bit rate mode               : Constant
Bit rate                    : 192 kb/s
Channel(s)                  : 2 channels
Channel positions           : Front: L R
Sampling rate               : 48.0 kHz
Frame rate                  : 31.250 FPS (1536 SPF)
Bit depth                   : 16 bits
Compression mode            : Lossy
Stream size                 : 183 MiB (8%)
Alignment                   : Split accross interleaves
Interleave, duration        : 42  ms (1.00 video frame)
Interleave, preload duratio : 500  ms
Title                       : Ukr DUB [iTunes-fixed]
Service kind                : Complete Main

Audio #2
ID                          : 2
Format                      : AC-3
Format/Info                 : Audio Coding 3
Format settings, Endianness : Big
Codec ID                    : 2000
Duration                    : 2 h 13 min
Bit rate mode               : Constant
Bit rate                    : 448 kb/s
Channel(s)                  : 6 channels
Channel positions           : Front: L C R, Side: L R, LFE
Sampling rate               : 48.0 kHz
Frame rate                  : 31.250 FPS (1536 SPF)
Bit depth                   : 16 bits
Compression mode            : Lossy
Stream size                 : 428 MiB (19%)
Alignment                   : Split accross interleaves
Interleave, duration        : 42  ms (1.00 video frame)
Interleave, preload duratio : 500  ms
Service kind                : Complete Main


Джерело:
Подяка Covenant'у за виправлену, повну українську доріжку.


 Трекер:    Зареєстрований   

Завантажити / скачати фільм українською



відео для новачків



 Зареєстрований:   2017-09-28 15:35
 Розмір:   2.18 GB 
 Оцінка фільму:   8.2/10 (Голосів: 65)
   
STALKER_SLX 
Новенький


З нами з: 09.04.10
Востаннє: 21.10.17
Повідомлень: 7

2017-09-28 19:19  
Anonymous
Цитата:
примітка: Тут усунуто прикрий ґандж з відсутністю українського дубляжу на проміжку 00:51:07 - 01:05:08


Підкажіть яким саме чином було усунуто даний гандж!?

Anonymous 







2017-09-28 19:25  
STALKER_SLX, таким https://toloka.to/t84281#932892
karim_10 
Новенький


З нами з: 27.03.16
Востаннє: 21.10.17
Повідомлень: 2

2017-09-28 19:49  
Ну нарешті, давно чекаю цей фільм)
Fouley 
Свій


З нами з: 01.06.11
Востаннє: 20.10.17
Повідомлень: 116

2017-09-29 23:29  
Вау! Цей павучок мене вразив. Абсолютно не схоже на все те, що я бачив раніше, і мені це сподобалось. Так легко, невимушено, можливо трохи по-дитячому, але в цьому вся суть. Мабуть сценаристи спеціально так сюжет зробили, щоб цікаво було. І не помилились 10 із 10
iambfx 
Новенький


З нами з: 29.08.11
Востаннє: 15.10.17
Повідомлень: 7

2017-10-01 16:10  
дурня для дітей
S3M4RiL 
Новенький


З нами з: 25.09.16
Востаннє: 20.10.17
Повідомлень: 24

2017-10-03 20:51  
Fouley написано:
Вау! Цей павучок мене вразив. Абсолютно не схоже на все те, що я бачив раніше, і мені це сподобалось. Так легко, невимушено, можливо трохи по-дитячому, але в цьому вся суть. Мабуть сценаристи спеціально так сюжет зробили, щоб цікаво було. І не помилились 10 із 10

Не фанат комісксів, знаю тільки поверхнево, але схоже, що в них вийшов класничний спайдермен, яким він і мав бути. В другій дилогії вже пробували йти цим шляхом, але щось у них не зросолось. Це найкраща версія павука, хоча я мені дуже подобаються і павук макгваєра і павук гарфілда.

mr. Santiago 
Новенький


З нами з: 22.12.16
Востаннє: 16.10.17
Повідомлень: 4

2017-10-16 17:59  
Як на мене, фільм на один раз.Але потрібно, обов’язково вказати, що фільм рекомендований до перегляду особам до 20 років і молодшим.
Ваш часовий пояс: GMT + 2 Години

Нова тема   Відповісти