Людина-павук: Повернення додому / Spider-Man: Homecoming (2017) Ukr/Eng | Sub Ukr/Eng

Нові коментарі

Нова тема   Відповісти
Автор Повідомлення
Anonymous 







2017-09-28 00:31  
Людина-павук: Повернення додому / Spider-Man: Homecoming (2017) Ukr/Eng | Sub Ukr/Eng

Людина-павук: Повернення додому / Spider-Man: Homecoming (2017) Ukr/Eng | Sub Ukr/Eng
«Коли закінчується одна історія, починається інша»
Інші українські постери:







Жанр: фантастика, бойовик, пригодницький
Країна: США



Кінокомпанія: Columbia Pictures, Marvel Studios, Pascal Pictures
Режисер: Джонатан Вотс / Jon Watts
Актори: Том Голланд / Tom Holland, Майкл Кітон / Michael Keaton, Роберт Дауні (мол.) / Robert Downey Jr., Маріса Томей / Marisa Tomei, Джон Фавро / Jon Favreau, Зендея Коулман / Zendaya Coleman, Дональд Гловер / Donald Glover, Джейкоб Баталон / Jacob Batalon, Лора Гарієр / Laura Harrier, Ґвінет Пелтроу / Gwyneth Paltrow, Тоні Револорі / Tony Revolori та інші

Сюжет:
Після історичної зустрічі з командою Месників Пітер Паркер повертається додому, намагаючись повернутись до нормального життя підлітка під опікою своєї тітки Мей. Але тепер за Пітером наглядає ще дещо... Тоні Старк бачив Людину-Павука у справі і повинен стати його наставником. Коли новий лиходій Стерв'ятник загрожує знищити все, що дороге Пітеру, приходить час довести всім, що таке справжній супергерой.
Офіційні українські трейлери:






Рейтинг MPAA: PG-13 - дітям до 13 років перегляд не бажаний
Вікова категорія: 12+
Тривалість: 02:13:28
Якість: [Hurtom, ріп з Blu-ray]
Відео:
кодек:
розмір кадру: 720 х 304
бітрейт: 1492 кб/с

Аудіо # 1:
мова: українська
переклад: професійний дубльований
кодек: 5.1
бітрейт: 448 кб/с

Аудіо # 2:
мова: англійська
переклад: оригінал
кодек: 5.1
бітрейт: 384 кб/с

Субтитри # 1-2:
мова: українська (форсовані, повні)
тип: програмні (м'які)
формат: *.srt

Субтитри # 3:
мова: англійська
тип: програмні (м'які)
формат: *.srt
Info
Код:
General
Complete name               : Spider-Man. Homecoming (2017) [Ukr,Eng] [Hurtom].avi
Format                      : AVI
Format/Info                 : Audio Video Interleave
Format profile              : OpenDML
File size                   : 2.18 GiB
Duration                    : 2 h 13 min
Overall bit rate            : 2 342 kb/s
Movie name                  : Людина-павук: Повернення додому / Spider-Man: Homecoming (2017) Ukr/Eng [Hurtom]
Genre                       : фантастика, бойовик, пригодницький
Writing application         : VirtualDubModUkr 1.5.10.2 (build 2542/release)
Writing library             : VirtualDubMod build 2542/release
Comment                     : https://toloka.to/t84282

Video
ID                          : 0
Format                      : MPEG-4 Visual
Format profile              : Advanced [email protected]
Format settings             : BVOP1
Format settings, BVOP       : 1
Format settings, QPel       : No
Format settings, GMC        : No warppoints
Format settings, Matrix     : Default (MPEG)
Codec ID                    :
Codec ID/Hint               :
Duration                    : 2 h 13 min
Bit rate                    : 1 492 kb/s
Width                       : 720 pixels
Height                      : 304 pixels
Display aspect ratio        : 2.35:1
Frame rate                  : 23.976 (24000/1001) FPS
Color space                 : YUV
Chroma subsampling          : 4:2:0
Bit depth                   : 8 bits
Scan type                   : Progressive
Compression mode            : Lossy
Bits/(Pixel*Frame)          : 0.284
Stream size                 : 1.39 GiB (64%)
Writing library             : 67

Audio #1
ID                          : 1
Format                      : AC-3
Format/Info                 : Audio Coding 3
Format settings, Endianness : Big
Codec ID                    : 2000
Duration                    : 2 h 13 min
Bit rate mode               : Constant
Bit rate                    : 448 kb/s
Channel(s)                  : 6 channels
Channel positions           : Front: L C R, Side: L R, LFE
Sampling rate               : 48.0 kHz
Frame rate                  : 31.250 FPS (1536 SPF)
Bit depth                   : 16 bits
Compression mode            : Lossy
Stream size                 : 428 MiB (19%)
Alignment                   : Split accross interleaves
Interleave, duration        : 42  ms (1.00 video frame)
Interleave, preload duratio : 500  ms
Title                       : Ukr DUB [Blu-ray]
Service kind                : Complete Main

Audio #2
ID                          : 2
Format                      : AC-3
Format/Info                 : Audio Coding 3
Format settings, Endianness : Big
Codec ID                    : 2000
Duration                    : 2 h 13 min
Bit rate mode               : Constant
Bit rate                    : 384 kb/s
Channel(s)                  : 6 channels
Channel positions           : Front: L C R, Side: L R, LFE
Sampling rate               : 48.0 kHz
Frame rate                  : 31.250 FPS (1536 SPF)
Bit depth                   : 16 bits
Compression mode            : Lossy
Stream size                 : 367 MiB (16%)
Alignment                   : Split accross interleaves
Interleave, duration        : 42  ms (1.00 video frame)
Interleave, preload duratio : 500  ms
Title                       : Eng
Service kind                : Complete Main
Скріншоти
будуть незабаром
Джерело:
Компіляція українських форсованих субтитрів: Ash61 та igor911; розпізнавання повних українських субтитрів з Blu-ray - Electroz, редагуванні - igor911; постер - Ham_R

Реліз оновлено - замінено відеоряд, звук та субтитри з Blu-ray


 Трекер:    Зареєстрований   

Завантажити / скачати фільм українською



відео для новачків



 Зареєстрований:   2017-10-28 19:32
 Розмір:   2.18 GB 
 Оцінка фільму:   8.3/10 (Голосів: 81)
   
karim_10 
Новенький


З нами з: 27.03.16
Востаннє: 11.12.17
Повідомлень: 4

2017-09-28 18:49  
Ну нарешті, давно чекаю цей фільм)
Fouley 
Свій


З нами з: 01.06.11
Востаннє: 11.12.17
Повідомлень: 118

2017-09-29 22:29  
Вау! Цей павучок мене вразив. Абсолютно не схоже на все те, що я бачив раніше, і мені це сподобалось. Так легко, невимушено, можливо трохи по-дитячому, але в цьому вся суть. Мабуть сценаристи спеціально так сюжет зробили, щоб цікаво було. І не помилились 10 із 10
iambfx 
Новенький


З нами з: 29.08.11
Востаннє: 30.11.17
Повідомлень: 8

2017-10-01 15:10  
дурня для дітей
S3M4RiL 
Частий відвідувач


З нами з: 25.09.16
Востаннє: 11.12.17
Повідомлень: 38

2017-10-03 19:51  
Fouley написано:
Вау! Цей павучок мене вразив. Абсолютно не схоже на все те, що я бачив раніше, і мені це сподобалось. Так легко, невимушено, можливо трохи по-дитячому, але в цьому вся суть. Мабуть сценаристи спеціально так сюжет зробили, щоб цікаво було. І не помилились 10 із 10

Не фанат комісксів, знаю тільки поверхнево, але схоже, що в них вийшов класничний спайдермен, яким він і мав бути. В другій дилогії вже пробували йти цим шляхом, але щось у них не зросолось. Це найкраща версія павука, хоча я мені дуже подобаються і павук макгваєра і павук гарфілда.

mr. Santiago 
Новенький


З нами з: 22.12.16
Востаннє: 10.12.17
Повідомлень: 4

2017-10-16 16:59  
Як на мене, фільм на один раз.Але потрібно, обов’язково вказати, що фільм рекомендований до перегляду особам до 20 років і молодшим.
Anonymous 







2017-10-28 19:37  
Реліз оновлено - замінено відеоряд, звук та субтитри з Blu-ray

bogdanich 
VIP


З нами з: 24.10.13
Востаннє: 13.12.17
Повідомлень: 517

2017-10-30 03:16  
Чудова кіноадаптація коміксу, найблища до оригіналу. Гарно прописаний злодій. Непоганий сюжет. Жарти в стилі мультсеріалу 90-х. Налаштовує на легкий та невимушений перегляд. Щось подібне я отримав від "Людини-мурахи". Для мене найкращою є трилогія з Тобі Магвайром. Але цей фільм мене приємно вразив.
10/10.
Дякую!

Nikko033 
VIP


З нами з: 31.12.12
Востаннє: 10.12.17
Повідомлень: 368

2017-11-02 00:42  
загалом сподобалось, от би ще обійшлись без М Джей Rolleyes (1) 8/10
volodymyr_sav 
VIP


З нами з: 07.10.13
Востаннє: 12.12.17
Повідомлень: 1198

2017-11-03 14:06  
НАЙГІРША ЕКРАНІЗАЦІЯ з усіх - 2/10(за винаходи Кіттона, особливо костюмчик стервятника та гру Зендаї - гарно й доречно кумедно).
Дуже примітивний, надзвичайно дитячий(підліткам старше 13 дивитись не варто). Абсолютно бездарна акторська гра особливо ГГ: недоречні кривляння Кіттона, Дауні як надутий індик себе вів та й оці абсолютно нелогічні витівки Голанда і в результаті ціле кіно його скигління через проблеми, що він сам собі створював.
Добре хоч та фінальна бійка була в кінці, а то б виблював вечерю від цього примітивізму з термінатопавуком у гол.ролі. Ні драми(сцена в ліфті гарна, але цього дуже замало), ні романтики(розвязка дуже тупа й недопрацьована), ні комедії(якби не вищезгадана Зендая був би абсолютний пшик)
КАТЕГОРИЧНО НЕ РЕКОМЕНДУЮ

ProgBassing 
Відео Гуртом - фільмокрай
Відео Гуртом - фільмокрай


З нами з: 08.03.08
Востаннє: 12.12.17
Повідомлень: 652

2017-11-03 19:17  
найкращі натепер павуки з Ґарфілдом: дотримання ориґінальної історії, більш реальні сюжетні ходи, заледве не досконалий акторський склад, якісний драматизм другої частини і перфектна динаміка усієї стрічки

...а це взагалі якась підтасовка під месників - тупо!

P.S. яке, нах, повернення додому, коли весь фільм вони труть про його випускний і жодного разу ні про яке повернення не згадується???

Ваш часовий пояс: GMT + 2 Години

Нова тема   Відповісти