Людина-павук: Повернення додому / Spider-Man: Homecoming (2017) Ukr | Sub Ukr/Eng

Нові коментарі

Нова тема   Відповісти
Автор Повідомлення
Anonymous 







2017-09-28 00:26  
Людина-павук: Повернення додому / Spider-Man: Homecoming (2017) Ukr | Sub Ukr/Eng

Людина-павук: Повернення додому / Spider-Man: Homecoming (2017) Ukr | Sub Ukr/Eng
«Коли закінчується одна історія, починається інша»
Інші українські постери:







Жанр: фантастика, бойовик, пригодницький
Країна: США



Кінокомпанія: Columbia Pictures, Marvel Studios, Pascal Pictures
Режисер: Джонатан Вотс / Jon Watts
Актори: Том Голланд / Tom Holland, Майкл Кітон / Michael Keaton, Роберт Дауні (мол.) / Robert Downey Jr., Маріса Томей / Marisa Tomei, Джон Фавро / Jon Favreau, Зендея Коулман / Zendaya Coleman, Дональд Гловер / Donald Glover, Джейкоб Баталон / Jacob Batalon, Лора Гарієр / Laura Harrier, Ґвінет Пелтроу / Gwyneth Paltrow, Тоні Револорі / Tony Revolori та інші

Сюжет:
Після історичної зустрічі з командою Месників Пітер Паркер повертається додому, намагаючись повернутись до нормального життя підлітка під опікою своєї тітки Мей. Але тепер за Пітером наглядає ще дещо... Тоні Старк бачив Людину-Павука у справі і повинен стати його наставником. Коли новий лиходій Стерв'ятник загрожує знищити все, що дороге Пітеру, приходить час довести всім, що таке справжній супергерой.
Офіційні українські трейлери:






Рейтинг MPAA: PG-13 - дітям до 13 років перегляд не бажаний
Вікова категорія: 12+
Тривалість: 02:13:28
Якість: [Hurtom, ріп з Blu-ray]
Відео:
кодек:
розмір кадру: 720 х 304
бітрейт: 1354 кб/с

Аудіо # 1:
мова: українська
переклад: професійний дубльований | студія LeDoyen
кодек: 2.0 [стерео]
бітрейт: 192 кб/с

Субтитри # 1-2:
мова: українська (форсовані, повні)
тип: програмні (м'які)
формат: *.srt

Субтитри # 3:
мова: англійська
тип: програмні (м'які)
формат: *.srt
Info
Код:
General
Complete name               : Spider-Man. Homecoming (2017) [Ukr] [Hurtom].avi
Format                      : AVI
Format/Info                 : Audio Video Interleave
File size                   : 1.45 GiB
Duration                    : 2 h 13 min
Overall bit rate            : 1 555 kb/s
Movie name                  : Людина-павук: Повернення додому / Spider-Man: Homecoming (2017) [Ukr] [Hurtom]
Genre                       : фантастика, бойовик, пригодницький
Writing application         : VirtualDubModUkr 1.5.10.2 (build 2542/release)
Writing library             : VirtualDubMod build 2542/release
Comment                     : https://toloka.to/t84281

Video
ID                          : 0
Format                      : MPEG-4 Visual
Format profile              : Advanced [email protected]
Format settings             : BVOP1
Format settings, BVOP       : 1
Format settings, QPel       : No
Format settings, GMC        : No warppoints
Format settings, Matrix     : Default (MPEG)
Codec ID                    :
Codec ID/Hint               :
Duration                    : 2 h 13 min
Bit rate                    : 1 354 kb/s
Width                       : 720 pixels
Height                      : 304 pixels
Display aspect ratio        : 2.40:1
Frame rate                  : 23.976 (24000/1001) FPS
Color space                 : YUV
Chroma subsampling          : 4:2:0
Bit depth                   : 8 bits
Scan type                   : Progressive
Compression mode            : Lossy
Bits/(Pixel*Frame)          : 0.258
Stream size                 : 1.26 GiB (87%)
Writing library             : 67

Audio
ID                          : 1
Format                      : AC-3
Format/Info                 : Audio Coding 3
Commercial name             : Dolby Digital
Codec ID                    : 2000
Duration                    : 2 h 13 min
Bit rate mode               : Constant
Bit rate                    : 192 kb/s
Channel(s)                  : 2 channels
Channel layout              : L R
Sampling rate               : 48.0 kHz
Frame rate                  : 31.250 FPS (1536 SPF)
Bit depth                   : 16 bits
Compression mode            : Lossy
Stream size                 : 183 MiB (12%)
Alignment                   : Split accross interleaves
Interleave, duration        : 42  ms (1.00 video frame)
Interleave, preload duratio : 500  ms
Title                       : Ukr DUB [Blu-ray]
Service kind                : Complete Main
Скріншоти
Джерело:
Компіляція українських форсованих субтитрів: Ash61 та igor911; розпізнавання повних українських субтитрів з Blu-ray - Electroz, редагування - igor911; постер - Ham_R

Реліз оновлено - замінено відеоряд, звук та субтитри з Blu-ray


 Трекер:    Зареєстрований   

Завантажити / скачати фільм українською



відео для новачків



 Зареєстрований:   2017-10-28 19:59
 Розмір:   1.45 GB 
 Оцінка фільму:   8.7/10 (Голосів: 146)
   
Anonymous 







2017-09-28 18:31  
Реліз оновлено, тепер повний дубляж

MasterYura 
Відео Гуртом - фільмокрай
Відео Гуртом - фільмокрай


З нами з: 21.11.09
Востаннє: 16.02.19
Повідомлень: 1036

2017-09-28 21:24  
в назві теми та назві сторінки додайте укр мову - бо враження що анг
Anonymous 







2017-09-29 07:57  
MasterYura написано:
бо враження що анг

Правила оформлення відео-релізу написано:
2. Назва
...Якщо мова тільки українська, її не вказуємо.

patlatyj1000 
Новенький


З нами з: 13.12.12
Востаннє: 12.02.19
Повідомлень: 7

2017-10-03 17:04  
В описі фільму: "Стерв'ятник загрожує знищити все, що дорогО Пітеру...". Мало б бути "все, що дорогЕ Пітеру", все, що дорого він і так не зможе купити. Виправте, будь ласка.
HERON 
Частий відвідувач


З нами з: 03.02.17
Востаннє: 15.02.19
Повідомлень: 40

2017-10-03 18:28  
дякую .гарний фільм ,мабуть самий "НЕпафосний" єпізод павукової історіїї..
elenaras 
Частий відвідувач


З нами з: 11.09.14
Востаннє: 27.01.19
Повідомлень: 30

2017-10-12 14:24  
Переклад гарний, фільм не дуже. Про школярів і для школярів. Дітям сподобався.
mr. Santiago 
Новенький


З нами з: 22.12.16
Востаннє: 23.11.18
Повідомлень: 6

2017-10-16 17:02  
Повністю підтримую попереднього дописувача. Для дітей підійде.
21jumpstreet 
VIP


З нами з: 03.07.12
Востаннє: 16.02.19
Повідомлень: 627

2017-10-27 09:19  
вийшов блюр з нашою доріжкою
Anonymous 







2017-10-28 20:06  
Реліз оновлено - замінено ріп, звук та субтитри з Blu-ray


Додано через 3 хвилини 39 секунд:

*через значну тривалість фільму та та бажання вміститись в стандартний розмір 1,45 Гб без значної шкоди якості відеоряду, звук з блурея було перекодовано в 2.0 стерео. Хто переглядатиме на 5.1 акустиці - обирайте інші релізи.

Ванько 
VIP


З нами з: 27.08.09
Востаннє: 16.02.19
Повідомлень: 357

2017-10-31 08:24  
HERON написано:
мабуть самий "НЕпафосний" єпізод

ймовірно, самий непафосний фільм із всесвіту Марвел.

Space707 
Попереджень: 1
Попереджень: 1 


З нами з: 20.01.15
Востаннє: 02.02.19
Повідомлень: 103

2018-06-19 16:18  
Не фільм, а розчарування. Навіть і близько не лежить біля перших двох фільмів Сема Реймі, де грав Тобі. Так, Тобі не дуже схожий (візуально) на Паркера з коміксів, як Ендрю Гарфілд, але це був найкращий Павук. Тут і візуально нульовий і в образі Павука. Тут повністю відсутні сцени, які би захоплювали дух, як сцена в палаючому будинку, де Пітер демонстрував феноменальну реакцію і пластичність. Можна ще згадати сцену, коли Норман помирав. Можна ще згадати сцену, коли Павук бився з Октавіусом на поїзді. Та там цілий вагон тих сцен, де автори грамотно підібрали композицію кадру і всяке таке. А музика... М-м-м, яка ж шикарна музика була до старих фільмів, а тут... Марвел Студіос не вміють підбирати грамотно музику. Тільки у фільмі Тор: Раґнарок була крута музика, і ще головна тема Громадянської Війни. Все решта - це фуфло.
dimon-2018 
Поважний учасник


З нами з: 06.05.18
Востаннє: 16.02.19
Повідомлень: 177

2019-01-25 15:43  
Anonymous, студія дубляжу - LeDoyen.
Ваш часовий пояс: GMT + 2 Години

Нова тема   Відповісти