Лицарі Некзо Найтс / Lego Nexo Knights (Сезон 4) (2017) 1080p

Нові коментарі

Нова тема   Відповісти
Автор Повідомлення
sergiyko.5 
Забанено
Забанено


З нами з: 25.02.16
Востаннє: 29.10.20
Повідомлень: 3648

2017-09-27 20:52  
Лицарі Некзо Найтс / Lego Nexo Knights (Сезон 4) (2017) 1080p

Лицарі Некзо Найтс / Lego Nexo Knights (Сезон 4) (2017) 1080p

Жанр: дитячий, фантастика, казка, пригодницький
Країна: Данія
Кінокомпанія: The Lego Group, M2 Entertainment Wilbros
Режисер: Дейв Осборн
Актори: Майкл Адамтвайт, Кетлін Бар, Гарі Чалк, Майкл Дейнжерфілд, Браян Драммонд

Сюжет:
У королівстві Найтоні панував лад і спокій, піддані короля любили і прославляли. Але несподівано над королівством нависли хмари – королівський блазень Джестро знайшов Книгу Монстрів і перейшов на темну сторону зла. Книга таїла в собі страшну силу, в ній від першої до останньої сторінки ховалося суцільне зло. Блазень Джестро, під впливом Книги Монстрів, створив військо лютих чудовиськ, і за його підтримки хотів заволодіти Найтоном і привласнити собі багатства королівства. Тепер вся надія на випускників Лицарської Академії Некзо, бо тільки вони здатні протистояти Джестро та його армії монстрів.
Разом із голографічним чарівником Мерлоком вони мандруватимуть мобільною фортецею Фортрекс і за допомогою своїх щитів завантажуватимуть дивовижні некзо-сили, здатні подолати злого Джестро та книгу монстрів. Та чи достатньо буде цих сил, аби врятувати Найтон і здобути перемогу над вогняними демонами?




Тривалість : 1 серія: 22:00 (цілком серій: 10)
Якість :

Відео : кодек: розмір кадру: 1920 х 1080 бітрейт: 3200 кб/с
Аудіо : мова: українська переклад: професійний дубльований кодек: 2.0 бітрейт: 192 кб/с
Джерело озвучення:
Перелік серій:
01 Вікенд у Гальберті
02 Сірий лицар
03 Хороший лихий і жадюга
04 На таємній службі його величності
05 Чувак у Гальпах
06 Череполам
07 Кам'яне серце
08 Між молотом і ковалдом
09 Марш колоса
10 Падіння
Про файл:
General
Unique ID : 228286288274132282935456888588473779671 (0xABBE57004795CCFFB4EFDA8B1064C5D7)
Complete name : E:\MULTFILMS\Lego Nexo Knights\Nexo Knights S04 1080p\Nexo.Knights.S04E01.Weekend.at.Halberts.1080p..Ukr.
Format :
Format version : Version 4 / Version 2
File size : 544 MiB
Duration : 22 min 0 s
Overall bit rate : 3 457 kb/s
Movie name : Nexo Knights S04 1080p by sergiyko
Encoded date : UTC 2017-09-27 17:40:28
Writing application : v15.0.0 ('Duel with the Devil') 64-bit
Writing library : libebml v1.3.5 + v1.4.5

Video
ID : 1
Format : AVC
Format/Info : Advanced Video Codec
Format profile : [email protected]
Format settings, CABAC : Yes
Format settings, RefFrames : 2 frames
Codec ID : V_MPEG4/ISO/AVC
Duration : 22 min 0 s
Bit rate : 3 263 kb/s
Width : 1 920 pixels
Height : 1 080 pixels
Display aspect ratio : 16:9
Frame rate mode : Constant
Frame rate : 24.000 FPS
Color space : YUV
Chroma subsampling : 4:2:0
Bit depth : 8 bits
Scan type : Progressive
Bits/(Pixel*Frame) : 0.066
Stream size : 513 MiB (94%)
Title : S04E01 Weekend at Halberts
Language : English
Default : Yes
Forced : No
Color range : Limited
Color primaries : BT.709
Transfer characteristics : BT.709
Matrix coefficients : BT.709

Audio
ID : 2
Format : AC-3
Format/Info : Audio Coding 3
Format settings, Endianness : Big
Codec ID : A_AC3
Duration : 22 min 0 s
Bit rate mode : Constant
Bit rate : 192 kb/s
Channel(s) : 2 channels
Channel positions : Front: L R
Sampling rate : 48.0 kHz
Frame rate : 31.250 FPS (1536 SPF)
Bit depth : 16 bits
Compression mode : Lossy
Stream size : 30.2 MiB (6%)
Title : DUB | ПлюсПлюс
Language : Ukrainian
Service kind : Complete Main
Default : Yes
Forced : No

Скріншоти:



Автор записів та синхрону: sergiyko



Бронзовий реліз (на рейтинг впливає 75% завантаженого)
 Трекер:    Зареєстрований   

Завантажити / скачати мультфільм українською



відео для новачків



 Зареєстрований:   2017-10-08 22:59
 Розмір:   5.38 GB 
 Оцінка мультсеріалу:   9.8/10 (Голосів: 17)
   
sergiyko.5 
Забанено
Забанено


З нами з: 25.02.16
Востаннє: 29.10.20
Повідомлень: 3648

2017-10-01 15:11  
Торент оновлено. Додав 4 та 5 епізоди.
sergiyko.5 
Забанено
Забанено


З нами з: 25.02.16
Востаннє: 29.10.20
Повідомлень: 3648

2017-10-08 23:00  
Додав всі серії до повного сезону. Приємного перегляду!
Andrey-2005 
Свій


З нами з: 13.05.16
Востаннє: 16.04.21
Повідомлень: 60

2017-11-28 09:36  
Підкажіть, а де подівся перший сезон? В мене він досі висить в мторенті, а на сайті вже нема.
sergiyko.5 
Забанено
Забанено


З нами з: 25.02.16
Востаннє: 29.10.20
Повідомлень: 3648

2017-11-28 10:19  
Andrey-2005 написано:
Підкажіть, а де подівся перший сезон? В мене він досі висить в мторенті, а на сайті вже нема.


Не знаю куди він подівся, ось залив новий торент https://toloka.to/t85458

Ваш часовий пояс: GMT + 2 Години

Нова тема   Відповісти