Drudkh - Paysage d'Hiver| Десь блукає журба (Somewhere Sadness Wanders) / Schnee (IV) (2017) [FLAC] | Black Metal

Нові коментарі

Нова тема   Відповісти
Автор Повідомлення
Anonymous 







2017-09-26 08:16  
Drudkh - Paysage d'Hiver| Десь блукає журба (Somewhere Sadness Wanders) / Schnee (IV) (2017) [FLAC] | Black Metal

Drudkh - Paysage d'Hiver| Десь блукає журба (Somewhere Sadness Wanders) / Schnee (IV) (2017) [FLAC] | Black Metal


Стиль: Black Metal
Країна, місто: Україна, Харків | Швайцарія, Берн
Видавець: Season of Mist Underground Activists
Виконавці:
Drudkh:
Роман "Thurios" Благих - спів, клавіші.
Роман Саєнко - гітара.
Кречет - бас.
Влад - ударні, клавіші.

Paysage d'Hiver:
Wintherr - усі інструменти та спів.
Пісні:
    1. Drudkh - All Shades of Silence
    2. Drudkh - The Night Walks Towards Her Throne
    3. Paysage d'Hiver - Schnee IV

Тривалість: 00:40:54
Мови: українська (1-2), німецька (3)
Авдіо-кодек: FLAC
Бітрейт: 890 кб/с
Джерело: Soulseek
Додаткова інформація:
Рип з платівки у 16/48. Хоча цей не веб-версія, проте звучить все добре.
звіт foo_dr
foobar2000 1.3.11 / Dynamic Range Meter 1.1.1
log date: 2017-08-29 14:46:31

--------------------------------------------------------------------------------
Analyzed: Drudkh / Somewhere Sadness Wanders / Schnee IV (1-2)
Paysage d'Hiver / Somewhere Sadness Wanders / Schnee IV (3)
--------------------------------------------------------------------------------

DR Peak RMS Duration Track
--------------------------------------------------------------------------------
DR11 -0.09 dB -13.92 dB 12:53 01-All Shades of Silence
DR11 -0.10 dB -11.86 dB 8:07 02-The Night Is Walking Towards Her Throne
DR11 -0.10 dB -12.63 dB 19:48 03-Schnee IV
--------------------------------------------------------------------------------

Number of tracks: 3
Official DR value: DR11

Samplerate: 48000 Hz
Channels: 2
Bits per sample: 16
Bitrate: 890 kbps
Codec: FLAC
================================================================================
спектрограма першої стежки
Drudkh - Paysage d'Hiver| Десь блукає журба (Somewhere Sadness Wanders) / Schnee (IV) (2017) [FLAC] | Black Metal


Срібний реліз (на рейтинг впливає 50% завантаженого)
 Трекер:    Зареєстрований   

Завантажити / скачати українську музику



відео для новачків



 Зареєстрований:   2017-09-26 08:16
 Розмір:   284 MB 
 Оцінка музики:   4.6/10 (Голосів: 17)
   
bot 
робот


З нами з: 30.09.07
Востаннє: 26.05.05
Повідомлень: 17898

2017-09-26 08:27  
Тему перенесено з Поп, Естрада до форуму Рок, Метал, Альтернатива, Панк, СКА


zawarudo

Anonymous 







2017-09-28 19:01  
Тільки-но з'явилася веб-версія перших двох пісень (пісень друдха). На мій смак звучать вони трохи ліпше ніж платівковий рип. Шкода що третьої пісні нема, бо можна було б замінити їх у роздачі. Такшо якщо комусь ці пісні потрібні то пишіть пп, я надам вам ланку для завантаження.
padalkaandrey 
Свій


З нами з: 04.09.09
Востаннє: 16.12.17
Повідомлень: 133

2017-09-30 14:28  
Anonymous
Не можу написати вам у приват. Чи не могли би поділитись лінком для завантаження?
Дякую.

Anonymous 







2017-09-30 15:45  
padalkaandrey, звісно. Перевірте пп.
Ваш часовий пояс: GMT + 2 Години

Нова тема   Відповісти