Трансформери: Останній лицар / Transformers: The Last Knight (2017) Remux 1080p [IMAX Edition] Ukr/Eng | Sub Ukr/Eng

Нові коментарі

Нова тема   Відповісти
Автор Повідомлення
IronBee 
Поважний учасник


З нами з: 08.02.10
Востаннє: 24.05.19
Повідомлень: 219

2017-09-23 17:05  
Трансформери: Останній лицар / Transformers: The Last Knight (2017) Remux 1080p [IMAX Edition] Ukr/Eng | Sub Ukr/Eng

Трансформери: Останній лицар / Transformers: The Last Knight (2017) Remux 1080p [IMAX Edition] Ukr/Eng | Sub Ukr/Eng


Жанр: бойовик, пригоди, фантастика
Країна: США



Кінокомпанія: Paramount Pictures, Hasbro, Di Bonaventura Pictures
Режисер: Майкл Бей
Актори: Марк Волберґ, Лаура Геддок, Ізабела Монер, Ентоні Гопкінс, Джош Дюамель, Стенлі Туччі, Софія Майлс, Джон Туртурро, Тайріз Гібсон, Джон Ґудмен та інші

Сюжет:
Конфлікт між людьми і трансформерами наростає і все говорить про майбутню війну. Про місцезнаходження Оптимуса Прайма нічого не відомо. Останньою надією на порятунок людства може стати історія про перших трансформерів на Землі, яка ретельно приховується. Наш світ може бути врятований завдяки спільним зусиллям професора з Оксфорду Вівіан Уемблі, Кейда Йегера і Бамблбі. Але яких зусиль не докладали б герої, виживе лише один зі світів – трансформерів або наш.


Тривалість: 02:34:38
Якість: Remux
Відео:
кодек:
розмір кадру: 1920 х 1080
бітрейт: 27,6 Mб/с

Аудіо # 1:
мова: українська
переклад: професійний дубльований | студія Postmodern
кодек: 5.1
бітрейт: 448 кб/с

Аудіо # 2:
мова: англійська
переклад: оригінал
кодек: TrueHD+Atmos 7.1
бітрейт: 4298 кб/с

Субтитри: (Full, Forced)
мова: українська
тип: програмні (м'які)
формат: *.srt

Субтитри: (SDH)
мова: англійська
тип: програмні (м'які)
формат: *.srt
Info
General
Unique ID : 235093489574488166786593071175156677708 (0xB0DD5BEFF4EDF282A6AC5D4F1684BC4C)
Complete name : E:\Films\Трансформери Останній лицар Transformers The Last Knight (2017) Remux 1080p [IMAX Edition] UkrEng Sub UkrEng[Hurtom].
Format :
Format version : Version 4 / Version 2
File size : 35.0 GiB
Duration : 2 h 34 min
Overall bit rate mode : Variable
Overall bit rate : 32.4 Mb/s
Encoded date : UTC 2018-05-04 07:50:38
Writing application : v22.0.0 ('At The End Of The World') 64-bit
Writing library : libebml v1.3.5 + v1.4.8

Video
ID : 1
Format : AVC
Format/Info : Advanced Video Codec
Format profile : [email protected]
Format settings : CABAC / 4 Ref Frames
Format settings, CABAC : Yes
Format settings, ReFrames : 4 frames
Codec ID : V_MPEG4/ISO/AVC
Duration : 2 h 34 min
Bit rate mode : Variable
Bit rate : 27.6 Mb/s
Maximum bit rate : 31.0 Mb/s
Width : 1 920 pixels
Height : 1 080 pixels
Display aspect ratio : 16:9
Frame rate mode : Constant
Frame rate : 23.976 (24000/1001) FPS
Color space : YUV
Chroma subsampling : 4:2:0
Bit depth : 8 bits
Scan type : Progressive
Bits/(Pixel*Frame) : 0.556
Stream size : 29.8 GiB (85%)
Language : English
Default : Yes
Forced : No

Audio #1
ID : 2
Format : AC-3
Format/Info : Audio Coding 3
Codec ID : A_AC3
Duration : 2 h 34 min
Bit rate mode : Constant
Bit rate : 448 kb/s
Channel(s) : 6 channels
Channel positions : Front: L C R, Side: L R, LFE
Sampling rate : 48.0 kHz
Frame rate : 31.250 FPS (1536 SPF)
Bit depth : 16 bits
Compression mode : Lossy
Stream size : 495 MiB (1%)
Title : 5.1 448 кб/с професійний дубльований | студія Postmodern
Language : Ukrainian
Service kind : Complete Main
Default : Yes
Forced : No

Audio #2
ID : 3
Format : TrueHD
Format profile : TrueHD+Atmos / TrueHD
Codec ID : A_TRUEHD
Duration : 2 h 34 min
Bit rate mode : Variable
Bit rate : 4 298 kb/s
Maximum bit rate : 6 528 kb/s
Channel(s) : Object Based / 8 channels
Channel positions : Object Based / Front: L C R, Side: L R, Back: L R, LFE
Sampling rate : / 48.0 kHz
Frame rate : 1 200.000 FPS (40 SPF)
Compression mode : Lossless
Stream size : 4.64 GiB (13%)
Title : Atmos TrueHD-Original
Language : English
Default : No
Forced : No

Text #1
ID : 4
Format : UTF-8
Codec ID : S_TEXT/UTF8
Codec ID/Info : UTF-8 Plain Text
Duration : 2 h 33 min
Bit rate : 1 b/s
Count of elements : 34
Stream size : 1.32 KiB (0%)
Language : Ukrainian
Default : Yes
Forced : No

Text #2
ID : 5
Format : UTF-8
Codec ID : S_TEXT/UTF8
Codec ID/Info : UTF-8 Plain Text
Duration : 2 h 33 min
Bit rate : 102 b/s
Count of elements : 2319
Stream size : 115 KiB (0%)
Language : Ukrainian
Default : No
Forced : No

Text #3
ID : 6
Format : UTF-8
Codec ID : S_TEXT/UTF8
Codec ID/Info : UTF-8 Plain Text
Duration : 2 h 25 min
Bit rate : 73 b/s
Count of elements : 2617
Stream size : 78.3 KiB (0%)
Title : SDH
Language : English
Default : No
Forced : No

Menu
00:00:00.000 : en:00:00:00.000
00:06:36.104 : en:00:06:36.104
00:14:03.468 : en:00:14:03.468
00:21:45.763 : en:00:21:45.763
00:27:53.255 : en:00:27:53.255
00:33:53.907 : en:00:33:53.907
00:40:08.906 : en:00:40:08.906
00:46:58.941 : en:00:46:58.941
00:53:25.786 : en:00:53:25.786
01:02:02.928 : en:01:02:02.928
01:08:47.081 : en:01:08:47.081
01:14:37.223 : en:01:14:37.223
01:20:10.180 : en:01:20:10.180
01:29:13.390 : en:01:29:13.390
01:37:59.499 : en:01:37:59.499
01:44:57.583 : en:01:44:57.583
01:51:15.502 : en:01:51:15.502
01:57:59.447 : en:01:57:59.447
02:06:09.729 : en:02:06:09.729
02:10:54.096 : en:02:10:54.096
02:16:01.153 : en:02:16:01.153
02:21:42.619 : en:02:21:42.619
02:25:17.292 : en:02:25:17.292
Скріншоти



Джерело: &
Особиста оцінка: 10 - без зайвих вагань рекомендую всім!


Золотий реліз (завантажене не впливає на рейтинг)
 Трекер:    Зареєстрований   

Завантажити / скачати фільм українською



відео для новачків



 Зареєстрований:   2018-05-04 14:42
 Розмір:   35.04 GB 
 Оцінка фільму:   8.9/10 (Голосів: 13)
   
МішанЯ 
Новенький


З нами з: 19.11.11
Востаннє: 21.05.19
Повідомлень: 12

2017-09-23 20:31  
Підкажіть будь ласка чи буде реліз в 3Д??якщо бде то коли???)))Дякую
igor911 
Модератор відео


З нами з: 18.01.08
Востаннє: 24.05.19
Повідомлень: 12539

2017-09-23 21:01  
МішанЯ, я вже писав тобі відповідь.
ika1963 
Відео Гуртом - дизайнер
Відео Гуртом - дизайнер


З нами з: 13.05.10
Востаннє: 24.05.19
Повідомлень: 280

2017-09-23 21:53  
А де писали щодо 3D?
2neron2 
Новенький


З нами з: 18.09.16
Востаннє: 22.05.19
Повідомлень: 5

2017-09-23 22:01  
ika1963
тут https://toloka.to/t83943-60 - не раніше, ніж в мережі з'явиться блурей 3д. американське видання має надійти у продаж 26.09

ika1963 
Відео Гуртом - дизайнер
Відео Гуртом - дизайнер


З нами з: 13.05.10
Востаннє: 24.05.19
Повідомлень: 280

2017-09-23 22:21  
бачив, що російською блюрей версія вже є на їх ресурсі:

Трансформеры: Последний рыцарь / Transformers: The Last Knight (IMAX Edition) / 2017 / ДБ, СТ / 2D, 3D / Blu-Ray Remux (1080p)
Качество: Blu-Ray Remux (1080p)
Видео: MPEG-4 AVC, 20464 Kбит/с, 1920x1080
Аудио: Русский (, 6 ch, 384 Кбит/с), английский (TrueHD, 8 ch, 4298 Кбит/с)
Размер: 39.61 ГБ
Продолжительность: 02:34:38
Перевод: Дублированный
Субтитры: Русские, английские
Залит на ("Кінозалі"): сегодня в 20:27
Будемо чекати на нашу. Happy

Finngolfin 
Новенький


З нами з: 01.01.13
Востаннє: 23.05.19
Повідомлень: 9

2017-09-24 14:52  
Абсолютне кіносміття. Не раджу качати, витрачати трафік і електроенергію на таке лайно. За працю по створенню релізу дякую!
МішанЯ 
Новенький


З нами з: 19.11.11
Востаннє: 21.05.19
Повідомлень: 12

2017-09-25 14:12  
igor911 написано:
мериканське видання має надійти у продаж 26.09

Дякую!)))

Nemmezis 
Новенький


З нами з: 11.08.17
Востаннє: 24.05.19
Повідомлень: 20

2017-10-06 15:23  
Цікаво, скільк ще Майкл буде знімати це кіно ... Вже настільки халтурно. Крім гарної картинки дивитись немає на що.
Audioholic 
Новенький


З нами з: 08.05.15
Востаннє: 14.04.19
Повідомлень: 4

2017-10-22 16:53  
МішанЯ
3D реліз вже доступний на Кінозалі.

CraZzyMark 
Новенький


З нами з: 02.05.13
Востаннє: 21.05.19
Повідомлень: 1

2017-10-31 20:03  
Як на мене, сюжет заслуговував кращої екранізації, так спецефекти і т.д., як завжди, але по сюжету дуже багато пропущено і навіть по ходу самого фільму обірвано, загалом тема не розкрита, 7 балів максимум
Uberwinder 
VIP


З нами з: 18.11.16
Востаннє: 24.05.19
Повідомлень: 277

2017-12-03 08:44  
Видовищно, зоряні актори, але насилу додивились до кінця...
skif_ua 
Частий відвідувач


З нами з: 18.04.09
Востаннє: 21.05.19
Повідомлень: 48

2018-01-22 21:01  
сюжет шлак, це ж треба так спаскудити франшизу.
Не додивився до кінця.

Beats 
Новенький


З нами з: 03.05.15
Востаннє: 21.05.19
Повідомлень: 13

2018-04-23 22:14  
Добавте звук 5.1, як тут https://toloka.to/t83943
IronBee 
Поважний учасник


З нами з: 08.02.10
Востаннє: 24.05.19
Повідомлень: 219

2018-05-04 14:44  
реліз оновлено, замінено доріжку на 5.1 @ 448 kbps
Яна_Банана 
Новенький


З нами з: 26.03.10
Востаннє: 21.05.19
Повідомлень: 3

2018-05-07 18:57  
Божечки, як ж це тільки муть... все настільки неоковирно, що фільм сприймався, скоріше, як невдала пародія на комедію.
Ваш часовий пояс: GMT + 2 Години

Нова тема   Відповісти