Клуб Вінкс. Школа чарівниць / Winx Club (Сезон 5-7) (2015) 1080p Ukr/Eng | sub Eng

Нові коментарі

Нова тема   Відповісти
Автор Повідомлення
sergiyko.5 
VIP


З нами з: 25.02.16
Востаннє: 20.10.17
Повідомлень: 1135

2017-09-23 13:08  
Клуб Вінкс. Школа чарівниць / Winx Club (Сезон 5-7) (2015) 1080p Ukr/Eng | sub Eng

Клуб Вінкс. Школа чарівниць / Winx Club (Сезон 5-7) (2015) 1080p Ukr/Eng | sub Eng

Жанр: анімація, пригоди, фентезі
Країна: Італія
Режисер: Іджиніо Страффі

Сюжет:

Клуб вінкс - це молодіжний серіал про пригоди Блум і її подруг фей. Всі вони навчаються в школі Алфеї. Клуб вінкс школа чарівниць - пригоди, фентезі і романтика в одному серіалі. Мультфільми про чарівниць подобаються дівчатам і хлопцям. Феї Вінкс - це море позитиву, драйву та гарного настрою.

У 6 сезоні Блум та інші відважні феї з клубу «Winx» знову готові врятувати весь світ від могутніх лиходіїв.

У Хмарній Вежі з'явилася нова відьма на ім'я Селіна, володіє книгою зла під назвою «Легендариум». Заклинання з «Легендариума» володіють особливою силою: користуючись ними, Селіна має намір пожвавити відомі всім нам стародавні легенди і міфи. Отримавши в своє розпорядження таку невідому міць, Селіна збирається захопити владу над усім світом.





Тривалість: 1 серія: 22:00 (цілком серій: 26+26+16)
Сезон 5:

Якість:
Відео: кодек: розмір кадру: 1920 х 1080 бітрейт: 3000 кб/с
Аудіо 1: мова: українська переклад: багатоголосий закадровий кодек: 2.0бітрейт: 128 кб/с
Джерело озвучення: Так Треба Продакшн на замовлення Піксель ТБ
Перелік серій:

01.Вилив нафти
02.Становлення Тритана
03.Повернення в Алфею
04.Книга Сиреніксу
05.Ліло
06.Сила Гармоніксу
07.Мерехтливі мушлі
08.Таємниця рубінового рифу
09.Камінь співчуття
10.Різдво на Магіксі
11.Підступи Трікс
12.Випробування сміливости
13.Сиренікс
14.Трон Імператора
15.Колона світла
16.Затемнення
17.Далеке відображення
18.Пожерач
19.Співучі кити
20.Муки кохання
21.Ідеальне побачення
22.Щиросердні наміри
23.Акуляче око
24.Подих океану
25.Битва за безмежний океан
26.Перемога над Тританом
Про файл:
General
Complete name : E:\MULTFILMS\Winx Club 1080p\Winx Club S05 1080p\Winx.Club.S05E05.The.Lilo.1080p..mp4
Format : MPEG-4
Format profile : Base Media
Codec ID : isom (isom/iso2/avc1/mp41)
File size : 529 MiB
Duration : 24 min 45 s
Overall bit rate : 2 987 kb/s
Writing application : Lavf56.40.101

Video
ID : 1
Format : AVC
Format/Info : Advanced Video Codec
Format profile : [email protected]
Format settings, CABAC : Yes
Format settings, RefFrames : 3 frames
Codec ID : avc1
Codec ID/Info : Advanced Video Coding
Duration : 24 min 45 s
Duration_FirstFrame : -40 ms
Bit rate : 2 856 kb/s
Width : 1 920 pixels
Height : 1 080 pixels
Display aspect ratio : 16:9
Frame rate mode : Variable
Frame rate : 25.000 FPS
Minimum frame rate : 25.000 FPS
Maximum frame rate : 25.014 FPS
Color space : YUV
Chroma subsampling : 4:2:0
Bit depth : 8 bits
Scan type : Progressive
Bits/(Pixel*Frame) : 0.055
Stream size : 506 MiB (96%)
Color range : Limited
Color primaries : BT.709
Transfer characteristics : BT.709
Matrix coefficients : BT.709

Audio
ID : 2
Format :
Format/Info : Advanced Audio Codec
Format profile : LC
Codec ID : 40
Duration : 24 min 45 s
Bit rate mode : Constant
Bit rate : 126 kb/s
Channel(s) : 2 channels
Channel positions : Front: L R
Sampling rate : 44.1 kHz
Frame rate : 43.066 FPS (1024 SPF)
Compression mode : Lossy
Stream size : 22.2 MiB (4%)
Default : Yes
Alternate group : 1
Скріншоти:
Сезон 6:

Якість:
Відео: кодек: розмір кадру: 1434 х 1072 бітрейт: 5200 кб/с
Аудіо 1: мова: українська переклад: професійний дубльований кодек: 2.0бітрейт: 192 кб/с
Джерело озвучення: Студія 1+1 на замовлення ТЕТ
Аудіо 2: мова: англійська переклад: оригінал кодек: 2 сhбітрейт: 160 кб/с
Субтитри: мова: англійська тип: програмні (м'які) формат: *.srt
Перелік серій:

01 Натхнення Сіренікса
02 Легендаріум
03 Літаюча школа
04 Магія Блумікс
05 Золота аудиторія
06 Вогняна вирва
07 Загублена бібліотека
08 Напад Сфінкса
09 Храм зеленого дракона
10 Потаємна оранжерея
11 Утрачені мрії
12 Блиск у темряві
13 Хрещена фея
14 Міфікс
15 Таємниця Калавери
16 Навала зомбі
17 Прокляття Фірвуда
18 Магічний Тотем
19 Королева на один день
20 Гучна вечірка Стелли
21 Закохане чудовисько
22 Музичне кафе
23 Гімн
24 Легендарна дуель
25 Ашерон
26 Вінкс назавжди
Про файл:
General
Unique ID : 170926571981994203516596762948889467151 (0x809742A4CCF724968D85E31B581BD90F)
Complete name : E:\MULTFILMS\Winx Club 1080p\Winx Club S06 1080p\Winx.Club.S06E01.Inspiration.of.Sirenix.1080p..Ukr.Eng.
Format :
Format version : Version 4 / Version 2
File size : 926 MiB
Duration : 22 min 45 s
Overall bit rate : 5 688 kb/s
Movie name : Winx Club S06 1080p by sergiyko
Encoded date : UTC 2017-09-21 08:14:40
Writing application : mkvmerge v15.0.0 ('Duel with the Devil') 64-bit
Writing library : libebml v1.3.5 + libmatroska v1.4.5
Cover : Yes
Attachments : cover.jpeg

Video
ID : 1
Format : AVC
Format/Info : Advanced Video Codec
Format profile : [email protected]
Format settings, CABAC : Yes
Format settings, RefFrames : 5 frames
Codec ID : V_MPEG4/ISO/AVC
Duration : 22 min 45 s
Bit rate : 5 333 kb/s
Width : 1 434 pixels
Height : 1 072 pixels
Display aspect ratio : 16:9
Frame rate mode : Constant
Frame rate : 29.970 (30000/1001) FPS
Color space : YUV
Chroma subsampling : 4:2:0
Bit depth : 8 bits
Scan type : Progressive
Bits/(Pixel*Frame) : 0.116
Stream size : 868 MiB (94%)
Title : S06E01.Inspiration.of.Sirenix.
Language : English
Default : Yes
Forced : No
Color range : Limited
Color primaries : BT.709
Transfer characteristics : BT.709
Matrix coefficients : BT.709

Audio #1
ID : 2
Format : AC-3
Format/Info : Audio Coding 3
Format settings, Endianness : Big
Codec ID : A_AC3
Duration : 22 min 45 s
Bit rate mode : Constant
Bit rate : 192 kb/s
Channel(s) : 2 channels
Channel positions : Front: L R
Sampling rate : 48.0 kHz
Frame rate : 31.250 FPS (1536 SPF)
Bit depth : 16 bits
Compression mode : Lossy
Stream size : 31.3 MiB (3%)
Title : DUB | ТЕТ
Language : Ukrainian
Service kind : Complete Main
Default : Yes
Forced : Yes

Audio #2
ID : 3
Format :
Format/Info : Advanced Audio Codec
Format profile : LC
Codec ID : A_AAC
Duration : 22 min 45 s
Bit rate : 158 kb/s
Channel(s) : 2 channels
Channel positions : Front: L R
Sampling rate : 48.0 kHz
Frame rate : 46.875 FPS (1024 SPF)
Compression mode : Lossy
Stream size : 25.7 MiB (3%)
Title : AAC2.0
Language : English
Default : No
Forced : No

Text
ID : 4
Format : UTF-8
Codec ID : S_TEXT/UTF8
Codec ID/Info : UTF-8 Plain Text
Duration : 22 min 32 s
Bit rate : 66 b/s
Count of elements : 483
Stream size : 10.9 KiB (0%)
Title : CC
Language : English
Default : No
Forced : No
Скріншоти:
Сезон 7:

Якість:
Відео: кодек: розмір кадру: 1920 х 1080 бітрейт: 3000 кб/с
Аудіо: мова: українська переклад: професійний дубльований кодек: 2.0бітрейт: 160 кб/с
Джерело озвучення: Студія 1+1 на замовлення ТЕТ
Перелік серій:

01.Алфейській заповiдник
02.Юні феї дорослішають
03.Баттерфлiкс
04.Перший колір всесвіту
05.Друг iз минулого
06.Пригода на Лiнфеi
07.Стережіться вовка
08.Назад у середньовіччя
09.Чарівний кіт
10.Вiнкс у пастці
11.Мiсiя в джунглях
12.Чарівне звірятко для Текни
13.Таємниця єдинорога
14.Перетворення Тайнікс
15.Магiчнi каменi
16.Повернення у райську затоку
Про файл:
General
Complete name : E:\MULTFILMS\Winx Club 1080p\Winx Club S07 1080p\Winx.Club.S07E02.Young.Fairies.Grow.Up.1080p..mp4
Format : MPEG-4
Format profile : Base Media
Codec ID : isom (isom)
File size : 457 MiB
Duration : 23 min 29 s
Overall bit rate mode : Variable
Overall bit rate : 2 720 kb/s
Encoded date : UTC 2017-10-17 09:18:11
Tagged date : UTC 2017-10-17 09:18:11

Video
ID : 1
Format : AVC
Format/Info : Advanced Video Codec
Format profile : [email protected]
Format settings, CABAC : Yes
Format settings, RefFrames : 3 frames
Codec ID : avc1
Codec ID/Info : Advanced Video Coding
Duration : 23 min 29 s
Duration_FirstFrame : -40 ms
Bit rate : 2 564 kb/s
Maximum bit rate : 9 591 kb/s
Width : 1 920 pixels
Height : 1 080 pixels
Display aspect ratio : 16:9
Frame rate mode : Variable
Frame rate : 25.000 FPS
Minimum frame rate : 25.000 FPS
Maximum frame rate : 25.014 FPS
Color space : YUV
Chroma subsampling : 4:2:0
Bit depth : 8 bits
Scan type : Progressive
Bits/(Pixel*Frame) : 0.049
Stream size : 431 MiB (94%)
Tagged date : UTC 2017-10-17 09:18:38
Color range : Limited
Color primaries : BT.709
Transfer characteristics : BT.709
Matrix coefficients : BT.709

Audio
ID : 2
Format :
Format/Info : Advanced Audio Codec
Format profile : LC
Codec ID : 40
Duration : 23 min 29 s
Source duration : 23 min 29 s
Bit rate mode : Variable
Nominal bit rate : 152 kb/s
Maximum bit rate : 219 kb/s
Channel(s) : 2 channels
Channel positions : Front: L R
Sampling rate : 44.1 kHz
Frame rate : 43.066 FPS (1024 SPF)
Compression mode : Lossy
Source stream size : 25.5 MiB (6%)
Language : Ukrainian
Default : Yes
Alternate group : 1
Tagged date : UTC 2017-10-17 09:18:38
Скріншоти:
Запис/зведення: sergiyko



Бронзовий реліз (на рейтинг впливає 75% завантаженого)
 Трекер:    Зареєстрований   

Завантажити / скачати мультфільм українською



відео для новачків



 Зареєстрований:   2017-10-17 18:07
 Розмір:   41.24 GB 
 Оцінка мультсеріалу:   10/10 (Голосів: 4)
   
sergiyko.5 
VIP


З нами з: 25.02.16
Востаннє: 20.10.17
Повідомлень: 1135

2017-09-26 19:14  
Торент оновлено. Додав 10 нових серій.
sergiyko.5 
VIP


З нами з: 25.02.16
Востаннє: 20.10.17
Повідомлень: 1135

2017-09-27 12:21  
Торент оновлено. Додав 15 серію.
sergiyko.5 
VIP


З нами з: 25.02.16
Востаннє: 20.10.17
Повідомлень: 1135

2017-10-13 20:47  
Додав всі серії 6 сезону. Приємного перегляду!
ValicV 
Свій


З нами з: 19.01.10
Востаннє: 20.10.17
Повідомлень: 98

2017-10-14 02:14  
Дякую за роботу. Порадую доню.
А чи планується ще який сезон крім 6?

sergiyko.5 
VIP


З нами з: 25.02.16
Востаннє: 20.10.17
Повідомлень: 1135

2017-10-14 07:13  
ValicV написано:
А чи планується ще який сезон крім 6?

Все що будуть показувати наші телеканали, буде записано. Зараз ТЕТ почав трансляцію 7 сезону. Але відео у якості HD в інтернеті з пристойною картинкою немає, тому реліз буде .

Electroz 
Відео Гуртом - підтримка та поширення
Відео Гуртом - підтримка та поширення


З нами з: 18.09.14
Востаннє: 20.10.17
Повідомлень: 1694

2017-10-14 10:38  
sergiyko.5 написано:
Але відео у якості HD в інтернеті з пристойною картинкою немає

'и з ютубу не підійдуть?

VIKTOtor 
Свій


З нами з: 02.01.12
Востаннє: 20.10.17
Повідомлень: 53

2017-10-15 14:45  
sergiyko.5
Так воно ж давно все у неті є. На youtube 4 сезони, у VK з 5 по 7 сезони та 3 повнометражні мультфільми.

sergiyko.5 
VIP


З нами з: 25.02.16
Востаннє: 20.10.17
Повідомлень: 1135

2017-10-15 19:05  
VIKTOtor
Яке у вас питання до мене?

VIKTOtor 
Свій


З нами з: 02.01.12
Востаннє: 20.10.17
Повідомлень: 53

2017-10-15 23:07  
Нема
sergiyko.5 
VIP


З нами з: 25.02.16
Востаннє: 20.10.17
Повідомлень: 1135

2017-10-17 18:10  
Додав 26 серій 5 сезону, 16 серій 7 сезону.
Ваш часовий пояс: GMT + 2 Години

Нова тема   Відповісти