Чужий: Заповіт / Alien: Covenant (2017) UHD 4K 2160p H.265 Ukr/Eng | Sub Ukr/Eng

Нові коментарі

Нова тема   Відповісти
Автор Повідомлення
Vladuk88 
Новенький


З нами з: 14.10.09
Востаннє: 11.12.17
Повідомлень: 10

2017-09-22 14:29  
Чужий: Заповіт / Alien: Covenant (2017) UHD 4K 2160p H.265 Ukr/Eng | Sub Ukr/Eng

Чужий: Заповіт / Alien: Covenant (2017) UHD 4K 2160p H.265 Ukr/Eng | Sub Ukr/Eng


Жанр: жахи, фантастика, трилер
Країна: США, Велика Британія, Австралія, Нова Зеландія, Канада



Кінокомпанія: 20th Century Fox, Scott Free Productions, TSG Entertainment, Brandywine Productions, Moving Picture Company
Режисер: Рідлі Скотт / Ridley Scott
Актори: айкл Фассбендер / Michael Fassbender, Кетрін Вотерстон / Katherine Waterston, Біллі Крудап / Billy Crudup, Денні МакБрайд / Danny McBride, Деміан Бішир / Demian Bichir, Кармен Еджоґо / Carmen Ejogo, Джуссі Смоллетт / Jussie Smollett, Каллі Ернандес / Callie Hernandez, Емі Саймец / Amy Seimetz, Бенджамін Рігбі / Benjamin Rigby, Натаніель Дін / Nathaniel Dean, Джеймс Франко / James Franco,

Сюжет:
Команда колоніального корабля "Заповіт" зробила посадку на дуже далеку планету маловідомого куточку галактики. Багато в чому це можна назвати другою Землею, адже там навіть ростуть наші рослини. "Заповіт" ніби знайшов рай за межами нашої планети. Згодом команда розуміє те, що вони не в раю... Це стане для них справжнім пеклом, з незвіданим світом, де єдиним жителем є андроїд на ім'я Девід, єдиний вцілілий з приреченої експедиції "Прометей". Але чи один він залишався на таємничій планеті?
Вікова категорія: 16+


Тривалість: 02:02:03
Якість: UltraHD 4K 2160p
Відео:
кодек: H.265 (HEVC)
розмір кадру: 3840x2160
бітрейт: 40 Мб/с

Аудіо # 1:
мова: українська
переклад: професійний дубльований
кодек: 5.1
бітрейт: 448кб/с

Аудіо # 2:
мова: англійська
переклад: оригінал
кодек: -HD MA 7.1
бітрейт: 5341кб/с

Субтитри # 1:
мова: українська
тип: пререндерні
формат: PGS

Субтитри # 2-3:
мова: англійська (повні, SDH)
тип: програмні (м'які)
формат: UTF-8

Джерело озвучення:
Info
Complete name : D:\Films\Alien Covenant_UKR ENG [UHD 4K].
General
Unique ID : 186726731637317229590156786989594885829 (0x8C7A42A8C624E0D49D8A7EAA06CCBEC5)
Complete name : D:\Films\Alien Covenant_UKR ENG [UHD 4K].
Format :
Format version : Version 4 / Version 2
File size : 38.9 GiB
Duration : 2 h 2 min
Overall bit rate : 45.7 Mb/s
Movie name : Alien Covenant (2017) UHD 4K
Encoded date : UTC 2017-09-30 12:15:05
Writing application : mkvmerge v15.0.0 ('Duel with the Devil') 64-bit
Writing library : libebml v1.3.5 + libmatroska v1.4.5
Cover : Yes
Attachments : cover.jpg

Video
ID : 1
Format : HEVC
Format/Info : High Efficiency Video Coding
Codec ID : V_MPEGH/ISO/HEVC
Duration : 2 h 2 min
Bit rate : 39.9 Mb/s
Width : 3 840 pixels
Height : 2 160 pixels
Display aspect ratio : 16:9
Frame rate mode : Constant
Frame rate : 23.976 (24000/1001) FPS
Color space : YUV
Chroma subsampling : 4:2:0
Bit depth : 8 bits
Bits/(Pixel*Frame) : 0.200
Stream size : 34.0 GiB (87%)
Title : Alien Covenant UHD 4K
Writing library : x265 1.4+424-2b93cf2a5ac8:[Windows][MSVC 1500][32 bit]
Encoding settings : wpp / ctu=16 / tu-intra-depth=1 / tu-inter-depth=1 / me=0 / subme=0 / merange=25 / no-rect / no-amp / max-merge=2 / temporal-mvp / early-skip / no-fast-cbf / rdpenalty=0 / no-tskip / no-tskip-fast / strong-intra-smoothing / no-lossless / no-cu-lossless / no-constrained-intra / fast-intra / no-open-gop / interlace=0 / keyint=30 / min-keyint=1 / scenecut=0 / rc-lookahead=1 / bframes=0 / bframe-bias=0 / b-adapt=0 / ref=1 / no-weightp / no-weightb / aq-mode=0 / aq-strength=0.00 / cbqpoffs=0 / crqpoffs=0 / rd=2 / psy-rd=0.00 / psy-rdoq=0.00 / no-signhide / no-lft / no-sao / no-sao-non-deblock / no-b-pyramid / no-cutree / rc=abr / bitrate=40000 / qcomp=0.60 / qpmin=0 / qpmax=51 / qpstep=4 / ipratio=1.40
Language : English
Default : Yes
Forced : No

Audio #1
ID : 2
Format : AC-3
Format/Info : Audio Coding 3
Format settings, Endianness : Big
Codec ID : A_AC3
Duration : 2 h 2 min
Bit rate mode : Constant
Bit rate : 448 kb/s
Channel(s) : 6 channels
Channel positions : Front: L C R, Side: L R, LFE
Sampling rate : 48.0 kHz
Frame rate : 31.250 FPS (1536 spf)
Bit depth : 16 bits
Compression mode : Lossy
Stream size : 391 MiB (1%)
Title : UKR
Language : Ukrainian
Service kind : Complete Main
Default : Yes
Forced : Yes

Audio #2
ID : 3
Format :
Format/Info : Digital Theater Systems
Format profile : MA / ES Matrix / Core
Mode : 16
Format settings, Endianness : Big
Codec ID : A_DTS
Duration : 2 h 2 min
Bit rate mode : Variable / Constant / Constant
Bit rate : 5 341 kb/s / 1 509 kb/s / 1 509 kb/s
Channel(s) : 8 channels / 7 channels / 6 channels
Channel positions : Front: L C R, Side: L R, Back: L R, LFE / Front: L C R, Side: L R, Back: C, LFE / Front: L C R, Side: L R, LFE
Sampling rate : 48.0 kHz
Frame rate : 93.750 FPS (512 spf)
Bit depth : 24 bits
Compression mode : Lossless / Lossy / Lossy
Stream size : 4.55 GiB (12%)
Title : -HD Master ENG
Language : English
Default : No
Forced : No

Text #1
ID : 4
Format : PGS
Muxing mode : zlib
Codec ID : S_HDMV/PGS
Codec ID/Info : Picture based subtitle format used on BDs/HD-DVDs
Duration : 2 h 0 min
Bit rate : 26.5 kb/s
Count of elements : 2686
Stream size : 22.9 MiB (0%)
Language : Ukrainian
Default : Yes
Forced : Yes

Text #2
ID : 5
Format : UTF-8
Codec ID : S_TEXT/UTF8
Codec ID/Info : UTF-8 Plain Text
Duration : 1 h 54 min
Bit rate : 44 b/s
Count of elements : 1451
Stream size : 36.8 KiB (0%)
Language : English
Default : No
Forced : No

Text #3
ID : 6
Format : UTF-8
Codec ID : S_TEXT/UTF8
Codec ID/Info : UTF-8 Plain Text
Duration : 1 h 54 min
Bit rate : 52 b/s
Count of elements : 1709
Stream size : 44.3 KiB (0%)
Language : English
Default : No
Forced : No
Скріншоти
Джерело:
Особиста оцінка: 8 - мені сподобалося


Срібний реліз (на рейтинг впливає 50% завантаженого)
 Трекер:    Зареєстрований   

Завантажити / скачати фільм українською



відео для новачків



 Зареєстрований:   2017-09-30 15:28
 Розмір:   38.92 GB 
 Оцінка фільму:   6.6/10 (Голосів: 11)
   
igor911 
Відео Гуртом
Відео Гуртом


З нами з: 18.01.08
Востаннє: 12.12.17
Повідомлень: 8472

2017-09-23 09:46  
Vladuk88 написано:
Audio #3
Format :
Bit rate : 128 kb/s
Channel(s) : 2 channels
Language : Ukrainian

українська доріжка має бути першою в контейнері (після відео) і в такому релізі вона має бути в максимальній якості - ліцензія з блурея 5.1 448 кб/с

bot 
робот


З нами з: 30.09.07
Востаннє: 26.05.05
Повідомлень: 17890

2017-09-23 09:47  
Тему перенесено з Фільми в HD до форуму Неоформлене відео


igor911

bot 
робот


З нами з: 30.09.07
Востаннє: 26.05.05
Повідомлень: 17890

2017-09-30 15:25  
Тему перенесено з Неоформлене відео до форуму Фільми в HD


igor911

dedgabber 
Частий відвідувач


З нами з: 07.06.11
Востаннє: 11.12.17
Повідомлень: 28

2017-10-01 04:34  
вже й 4к є Wide grin
mrdarkness 
Новенький


З нами з: 19.05.17
Востаннє: 11.12.17
Повідомлень: 5

2017-10-02 17:28  
Привіт всім! Відгукніться, хто завантажив. В мене не відтворюється дане відео. Завантажував Смурфів - йшло без проблем. Дивлюся з QNAP TS-412 використовуючи Media Streaming add-on або TwonkyMedia. ТВ Lg65UH615V Cry (2)
Vladuk88 
Новенький


З нами з: 14.10.09
Востаннє: 11.12.17
Повідомлень: 10

2017-10-03 08:29  
mrdarkness написано:
Привіт всім! Відгукніться, хто завантажив. В мене не відтворюється дане відео. Завантажував Смурфів - йшло без проблем. Дивлюся з QNAP TS-412 використовуючи Media Streaming add-on або TwonkyMedia. ТВ Lg65UH615V

Використовую Plex Media Server або http://forkplayer.tv/ (там є опція DLNA-сервер через яку без проблем відтворюється 4к + можна дивитися багато фільмів онлайн, правда на кацапській більша половина), більше нічим не можу допомогти. ТВ LG 49UF770V

uaxpasha 
Поважний учасник


З нами з: 05.08.12
Востаннє: 10.12.17
Повідомлень: 168

2017-10-03 10:19  
Vladuk88 написано:
H.265

Оце добре. Можна і 1080р релізи в цьому форматі робити

mrdarkness 
Новенький


З нами з: 19.05.17
Востаннє: 11.12.17
Повідомлень: 5

2017-10-03 15:26  
Vladuk88 написано:
Використовую Plex Media Server або http://forkplayer.tv/ (там є опція DLNA-сервер через яку без проблем відтворюється 4к + можна дивитися багато фільмів онлайн, правда на кацапській більша половина), більше нічим не можу допомогти. ТВ LG 49UF770V

Про форкплєєр знаю давно. Але як закрили FS.TO там контенту українською зменшилося в рази. Спробую Plex.
Дякую за інформацію

ВАВУНЯ 
Поважний учасник


З нами з: 30.06.15
Востаннє: 11.12.17
Повідомлень: 159

2017-10-07 17:32  
шкода, але мій LG 40UB800V не відтворює. Sad (1)
Vladuk88 
Новенький


З нами з: 14.10.09
Востаннє: 11.12.17
Повідомлень: 10

2017-10-08 17:09  
ВАВУНЯ написано:
шкода, але мій LG 40UB800V не відтворює.

а чому? і через що відкриваєте?

ВАВУНЯ 
Поважний учасник


З нами з: 30.06.15
Востаннє: 11.12.17
Повідомлень: 159

2017-10-09 09:54  
Vladuk88
- гадаю, телевізор не відтворює відео із-за кодека H.265 (HEVC). він, начебто, тільки (HEVC) відтворює. принаймні інформації про зворотнє не знайшов. телевізор 4К і така "засідка". Sad (1)

- записую на жорсткий диск, під'єдную до телевізора, дивлюсь.

igor911 
Відео Гуртом
Відео Гуртом


З нами з: 18.01.08
Востаннє: 12.12.17
Повідомлень: 8472

2017-10-09 10:29  
ВАВУНЯ написано:
не відтворює відео із-за кодека H.265 (HEVC). він, начебто, тільки (HEVC)

пишу вдруге, HEVC це і є H.265 https://uk.wikipedia.org/wiki/H.265 , і аж ніяк не .

ВАВУНЯ 
Поважний учасник


З нами з: 30.06.15
Востаннє: 11.12.17
Повідомлень: 159

2017-10-09 10:51  
igor911
дякую, Ігоре. я з одразу зрозумів ще перше твоє зауваження, а зараз просто некоректно написав:
Цитата:
- гадаю, телевізор не відтворює відео із-за кодека H.265 (HEVC). він, начебто, тільки ̶(̶H̶E̶V̶C̶)̶ відтворює. принаймні інформації про зворотнє не знайшов. телевізор 4К і така "засідка". Sad (1)
але все одно не відтворює.

igor911 
Відео Гуртом
Відео Гуртом


З нами з: 18.01.08
Востаннє: 12.12.17
Повідомлень: 8472

2017-10-09 10:58  
ВАВУНЯ написано:
але все одно не відтворює.

спробуй з іншого носія, пошукай по форумах з обговорення 4к та телеків LG, подзвони на гарячу лінію чи сервіс.

ВАВУНЯ 
Поважний учасник


З нами з: 30.06.15
Востаннє: 11.12.17
Повідомлень: 159

2017-10-09 11:02  
igor911
позавчора написав в "техпітримку" LG. чекаю на відповідь.
поки сам ще "пошаманю".
дякую.

jloohatik 
Частий відвідувач


З нами з: 10.09.11
Востаннє: 10.12.17
Повідомлень: 30

2017-10-11 11:53  
Заїжджена тема з чужим, не відпускає вже багато років, і стає все гіршою як CoD..

Море жахів
Купа чужих
Багато заповіту

6 помідорів з 10

boombyte 
Частий відвідувач


З нами з: 12.04.14
Востаннє: 10.12.17
Повідомлень: 46

2017-10-11 22:56  
Щось лажа з сюжетом. То це сраний андроїд все наробив?
Минулі були цікавіші.

vash1 
Свій


З нами з: 16.03.16
Востаннє: 12.12.17
Повідомлень: 91

2017-10-29 19:54  
Vladuk88 написано:
Vladuk88


можете, будь ласка, залити семпл на мегабайт 100-200?

JorgenD 
Новенький


З нами з: 26.07.16
Востаннє: 06.12.17
Повідомлень: 1

2017-11-26 23:41  
boombyte
Сюжет простий як палка, робот уподоблює себе Б.гу. Це якщо ДУЖЕ коротко. А взагалі в цьому фільмі головний не сюжет, а посилання на біблію, класичну літературу ітд. які не всі зрозуміли(мейже ніxто).

Ваш часовий пояс: GMT + 2 Години

Нова тема   Відповісти