Нікчемний я 3 / Despicable Me 3 (2017) AVC

Нові коментарі

Нова тема   Відповісти
Автор Повідомлення
Drool 
VIP


З нами з: 17.04.10
Востаннє: 04.04.20
Повідомлень: 1524

2017-09-22 09:07  
Нікчемний я 3 / Despicable Me 3 (2017) AVC

Нікчемний я 3 / Despicable Me 3 (2017) AVC


Жанр: анімація, фантастика, бойовик, комедія, пригодницький, сімейний
Країна: США



Кінокомпанія: Universal Pictures, Illumination Entertainment
Режисер: Кайл Балда, Пьєр Соффін, Ерік Ґуільон
Ролі озвучують: Стів Карелл, Крістен Віґ, Трей Паркер, Міранда Косґров, Дена Ґаєр, Нев Шаррел, Джулі Ендрюс, Стів Куґан, Дженні Слейт, Пьєр Соффін, Катя Сапоненко та інші

Сюжет:
У Ґру проблеми. Останню справу він не зміг виконати, тому його усунули від роботи. Поки численне сімейство залишилося без годувальника, колишній лиходій шукає якісь способи заробити грошви. Раптово у житті Ґру з'являється звісточка про те, що його в гості запрошує брат-близнюк Дрю, про якого він ніколи не чув. Той живе на власному острові в розкішному маєтку. Дрю пропонує братику хоч на одну справу повернутися у злочинний світ, щоб мати можливість утримувати сім'ю. Ґру повинен це зробити, заради своїх дівчаток. Аби брат, який ніколи не робив нічого незаконного, не зіпсував справу.


Тривалість: 01:29:40
Якість: AVC
Відео:
кодек:
розмір кадру: 1152x480
бітрейт: 2266 кб/с

Аудіо:
мова: українська
переклад: професійний дубльований
кодек: 2.0 [стерео]
бітрейт: 192 кб/с

Субтитри (форсовані):
мова: українська
тип: програмні (м'які)
формат: *.srt
Info
Код:
General
Unique ID                                : 250481533120799749133233974021463113580 (0xBC70FD0F5754A053B8D607BBD40E7F6C)
Complete name                            : /mnt/disk_e/Video/Мультфильмы/Despicable.Me.3.2017.Ukr.Dub.2.0.AVC.
Format                                   :
Format version                           : Version 4 / Version 2
File size                                : 1.54 GiB
Duration                                 : 1 h 29 min
Overall bit rate                         : 2 460 kb/s
Movie name                               : Нікчемний я 3 / Despicable Me 3 (2017) AVC
Encoded date                             : UTC 2018-11-16 20:37:43
Writing application                      : v8.2.0 ('World of Adventure') 64bit
Writing library                          : libebml v1.3.1 + v1.4.2
Cover                                    : Yes
Attachments                              : cover.png

Video
ID                                       : 1
Format                                   : AVC
Format/Info                              : Advanced Video Codec
Format profile                           : [email protected]
Format settings                          : CABAC / 14 Ref Frames
Format settings, CABAC                   : Yes
Format settings, RefFrames               : 14 frames
Codec ID                                 : V_MPEG4/ISO/AVC
Duration                                 : 1 h 29 min
Bit rate                                 : 2 266 kb/s
Width                                    : 1 152 pixels
Height                                   : 480 pixels
Display aspect ratio                     : 2.40:1
Frame rate mode                          : Constant
Frame rate                               : 23.976 (24000/1001) FPS
Color space                              : YUV
Chroma subsampling                       : 4:2:0
Bit depth                                : 8 bits
Scan type                                : Progressive
Bits/(Pixel*Frame)                       : 0.171
Stream size                              : 1.42 GiB (92%)
Title                                    : Нікчемний я 3 / Despicable Me 3 (2017) AVC
Writing library                          : core 146 r2538 121396c
Encoding settings                        : cabac=1 / ref=14 / deblock=1:-3:-2 / analyse=0x3:0x133 / me=umh / subme=11 / psy=1 / psy_rd=1.00:0.00 / mixed_ref=1 / me_range=48 / chroma_me=1 / trellis=2 / 8x8dct=1 / cqm=0 / deadzone=21,11 / fast_pskip=1 / chroma_qp_offset=-4 / threads=6 / lookahead_threads=1 / sliced_threads=0 / nr=0 / decimate=0 / interlaced=0 / bluray_compat=0 / constrained_intra=0 / bframes=13 / b_pyramid=2 / b_adapt=2 / b_bias=0 / direct=3 / weightb=1 / open_gop=0 / weightp=2 / keyint=240 / keyint_min=23 / scenecut=40 / intra_refresh=0 / rc_lookahead=60 / rc=crf / mbtree=0 / crf=18.6 / qcomp=0.60 / qpmin=0 / qpmax=69 / qpstep=4 / vbv_maxrate=50000 / vbv_bufsize=62500 / crf_max=0.0 / nal_hrd=none / filler=0 / ip_ratio=1.40 / pb_ratio=1.35 / aq=1:1.00
Default                                  : Yes
Forced                                   : Yes

Audio
ID                                       : 2
Format                                   : AC-3
Format/Info                              : Audio Coding 3
Format settings, Endianness              : Big
Codec ID                                 : A_AC3
Duration                                 : 1 h 29 min
Bit rate mode                            : Constant
Bit rate                                 : 192 kb/s
Channel(s)                               : 2 channels
Channel positions                        : Front: L R
Sampling rate                            : 48.0 kHz
Frame rate                               : 31.250 FPS (1536 SPF)
Bit depth                                : 16 bits
Compression mode                         : Lossy
Stream size                              : 123 MiB (8%)
Title                                    : Dub [LeDoyen, license] 2.0 [stereo] 192 Kbps
Language                                 : Ukrainian
Service kind                             : Complete Main
Default                                  : Yes
Forced                                   : Yes

Text
ID                                       : 3
Format                                   : UTF-8
Codec ID                                 : S_TEXT/UTF8
Codec ID/Info                            : UTF-8 Plain Text
Duration                                 : 1 h 10 min
Bit rate                                 : 1 b/s
Count of elements                        : 27
Stream size                              : 829 Bytes (0%)
Title                                    : UKR Forced
Language                                 : Ukrainian
Default                                  : Yes
Forced                                   : Yes
Скріншоти




Джерело: &
Особиста оцінка: 8 - мені сподобалося



 Трекер:    Зареєстрований   

Завантажити / скачати мультфільм українською



відео для новачків



 Зареєстрований:   2018-11-17 00:03
 Розмір:   1.54 GB 
 Оцінка мультфільму:   9.7/10 (Голосів: 77)
   
Інші релізи
   Нікчемний Я 3 / Despicable Me 3 (2017) 1080p H.265 Ukr/Eng | Sub Eng -Star-Lord-  9 / 0   3.74 GB   2019-07-29 22:50 
   Нікчемний я 3 / Despicable Me 3 (2017) 720p Ukr/Eng | Sub Eng igor911  10 / 0   3.46 GB   2018-11-16 20:10 
   Нікчемний я 3 / Despicable Me 3 (2017) Remux 1080p Ukr/Eng | Sub Eng igor911  4 / 0   18.41 GB   2018-11-16 19:32 
   Нікчемний я 3 / Despicable Me 3 (2017) 1080p Ukr/Eng | Sub Eng Electroz  13 / 0   7.13 GB   2018-11-15 23:32 
   Нікчемний я 3 / Despicable Me 3 (2017) Covenant  14 / 0   1.45 GB   2017-09-19 12:35 
volodymyr_sav 
VIP


З нами з: 07.10.13
Востаннє: 03.04.20
Повідомлень: 1687

2018-02-21 10:18  
Не розумію низького рейтингу. Ця частина на рівні попередніх. Цікава ідея з братом і антагоністом з минулого. А історія з "єдинорогом" розчулила до сліз і порадувала - настільки якісно було зроблено. Дуже класний мульт і як я зрозумів буде іще як мінімум одна частина.
Моментами було смішно до болів у животі з того як чудив той брат та посіпаки-зеки.
8/10 - забираю в колекцію й усім рекомендую

Ssoul 
Частий відвідувач


З нами з: 10.10.14
Востаннє: 29.03.20
Повідомлень: 29

2018-04-02 13:49  
Не дуже сподобалось. Ніби всі ті самі милі герої, смішний антагоніст. Але якось не то, якось надумано. Немає тої душевності, що була у першій частині. На мою думку, кожна наступна частина гірша за попередню.
Оцінка 6/10.

eXteSy- 
VIP


З нами з: 06.04.09
Востаннє: 05.04.20
Повідомлень: 2060

2018-06-03 22:44  
Значно слабша за другу частину. Окремі класні епізоди трохи рятують цю частину і вона не настільки невдала, як перша. Однак до другої зовсім не дотягує, дивитися було досить нудно. Та й антагоніст якось дуже вже гіперболізовано абсурдний.
6,5/10

Drool 
VIP


З нами з: 17.04.10
Востаннє: 04.04.20
Повідомлень: 1524

2018-11-17 00:07  
Реліз оновлено - замінено звук на ліцензійний, додано українські форсовані субтитри.
Yakov2017 
Новенький


З нами з: 10.03.17
Востаннє: 02.01.20
Повідомлень: 1

2018-12-01 15:46  
Раздайте!
element 2015 
Новенький


З нами з: 24.02.14
Востаннє: 04.04.20
Повідомлень: 5

2018-12-07 20:40  
НОРМАЛЬНЙ МУЛЬТИК
Віктор Багряний 
VIP


З нами з: 20.08.12
Востаннє: 03.04.20
Повідомлень: 398

2018-12-08 10:50  
для тих, хто не розуміє низького рейтингу - для ліберастів мультик нетолерастичний, бо пропагує сімейні цінності.
от вони й накручюють низький рейтинг.

Ваш часовий пояс: GMT + 2 Години

Нова тема   Відповісти