Нікчемний я 3 / Despicable Me 3 (2017) Remux 1080p Ukr/Eng | Sub Eng

Нові коментарі

Нова тема   Відповісти
Автор Повідомлення
Anonymous 







2017-09-21 05:40  
Нікчемний я 3 / Despicable Me 3 (2017) Remux 1080p Ukr/Eng | Sub Eng

Усі українські постери:

Нікчемний я 3 / Despicable Me 3 (2017) Remux 1080p Ukr/Eng | Sub Eng



















Жанр: анімація, фантастика, бойовик, комедія, пригодницький, сімейний
Країна: США



Кінокомпанія: Universal Pictures, Illumination Entertainment
Режисер: Кайл Балда / Kyle Balda, Пьєр Соффін / Pierre Coffin, Ерік Ґуільон / Eric Guillon
Актори: Стів Карелл / Steve Carell, Крістен Віґ / Kristen Wiig, Трей Паркер / Trey Parker, Міранда Косґров / Miranda Cosgrove, Дена Ґаєр / Dana Gaier, Нев Шаррел / Nev Scharrel, Джулі Ендрюс / Julie Andrews, Стів Куґан / Steve Coogan, Дженні Слейт / Jenny Slate, Пьєр Соффін / Pierre Coffin, Катя Сапоненко та інші

Сюжет:
У Ґру проблеми. Останню справу він не зміг виконати, тому його усунули від роботи. Поки численне сімейство залишилося без годувальника, колишній лиходій шукає якісь способи заробити грошви. Раптово у житті Ґру з'являється звісточка про те, що його в гості запрошує брат-близнюк Дрю, про якого він ніколи не чув. Той живе на власному острові в розкішному маєтку. Дрю пропонує братику хоч на одну справу повернутися у злочинний світ, щоб мати можливість утримувати сім'ю. Ґру повинен це зробити, заради своїх дівчаток. Аби брат, який ніколи не робив нічого незаконного, не зіпсував справу.
Офіційні українські трейлери та відео:












Рейтинг MPAA: PG - рекомендується присутність батьків
Вікова категорія: 6+

Тривалість: 01:29:40
Якість: Remux 1080p
Відео:
кодек:
розмір кадру: 1920 х 1080
бітрейт: 25,6 Мб/с

Аудіо # 1:
мова: українська
переклад: професійний дубльований | студія LeDoyen
кодек: 2.0 [стерео]
бітрейт: 192 кб/с
Інформація про дубляж
Ролі дублювали: Павло Костіцин (Ґру/Дрю), Катерина Осадча (Люсі), Майкл Щур (ведучий теленовин), Тамара Яценко (мати Ґру та Дрю), Михайло Кукуюк, Софія Масаутова, Софія Нестеренко, Олена Бернова, Олександр Завальський, Олена Узлюк та інші.
Аудіо # 2:
мова: англійська
переклад: оригінал
кодек: :X / -HD MA 7.1
бітрейт: 3595 кб/с

Субтитри # 1:
мова: українська (форсовані)
тип: програмні (м'які)
формат: *.srt

Субтитри # 2:
мова: англійська (SDH)
тип: пререндерні
формат: pgs

Субтитри # 3-4:
мова: англійська (повні, SDH кольорові)
тип: програмні (м'які)
формат: *.srt

Збережено оригінальні розділи, як на Blu-ray
Info
Код:

Complete name               : Despicable Me 3 (2017) [Ukr,Eng sub.Eng] Remux 1080p [Hurtom].
Format                      :
Format version              : Version 4
File size                   : 18.4 GiB
Duration                    : 1 h 29 min
Overall bit rate mode       : Variable
Overall bit rate            : 29.4 Mb/s
Movie name                  : Нікчемний я 3 / Despicable Me 3 (2017) [Ukr,Eng sub.Eng] Remux 1080p [Hurtom]
Released date               : 2017
Encoded date                : UTC 2018-11-16 15:30:47
Writing application         : v28.2.0 ('The Awakening') 64-bit
Writing library             : libebml v1.3.6 + v1.4.9
Cover                       : Yes
Comment                     : http://www.imdb.com/title/tt3469046/
Attachments                 : cover.jpg
ARTIST                      : Стів Карелл / Steve Carell, Крістен Віґ / Kristen Wiig, Трей Паркер / Trey Parker, Міранда Косґров / Miranda Cosgrove, Дена Ґаєр / Dana Gaier, Нев Шаррел / Nev Scharrel, Джулі Ендрюс / Julie Andrews, Стів Куґан / Steve Coogan, Дженні Слейт / Jenny Slate, Пьєр Соффін / Pierre Coffin, Катя Сапоненко та інші
DIRECTOR                    : Кайл Балда / Kyle Balda, Пьєр Соффін / Pierre Coffin, Ерік Ґуільон / Eric Guillon
GENRE                       : анімація, фантастика, бойовик, комедія, пригодницький, сімейний
SYNOPSIS                    : У Ґру проблеми. Останню справу він не зміг виконати, тому його усунули від роботи. Поки численне сімейство залишилося без годувальника, колишній лиходій шукає якісь способи заробити грошви. Раптово у житті Ґру з'являється звісточка про те, що його в гості запрошує брат-близнюк Дрю, про якого він ніколи не чув. Той живе на власному острові в розкішному маєтку. Дрю пропонує братику хоч на одну справу повернутися у злочинний світ, щоб мати можливість утримувати сім'ю. Ґру повинен це зробити, заради своїх дівчаток. Аби брат, який ніколи не робив нічого незаконного, не зіпсував справу...
Url                         : https://toloka.to/t84190

Video
ID                          : 1
Format                      : AVC
Format/Info                 : Advanced Video Codec
Format profile              : [email protected]
Format settings             : CABAC / 4 Ref Frames
Format settings, CABAC      : Yes
Format settings, ReFrames   : 4 frames
Format settings, GOP        : M=3, N=12
Codec ID                    : V_MPEG4/ISO/AVC
Duration                    : 1 h 29 min
Bit rate mode               : Variable
Bit rate                    : 25.6 Mb/s
Maximum bit rate            : 29.0 Mb/s
Width                       : 1 920 pixels
Height                      : 1 080 pixels
Display aspect ratio        : 16:9
Frame rate mode             : Constant
Frame rate                  : 23.976 (24000/1001) FPS
Color space                 : YUV
Chroma subsampling          : 4:2:0
Bit depth                   : 8 bits
Scan type                   : Progressive
Bits/(Pixel*Frame)          : 0.515
Stream size                 : 16.0 GiB (87%)
Title                       : Нікчемний я 3 / Despicable Me 3 (2017) Remux 1080p
Language                    : English
Default                     : Yes
Forced                      : No

Audio #1
ID                          : 2
Format                      : AC-3
Format/Info                 : Audio Coding 3
Commercial name             : Dolby Digital
Codec ID                    : A_AC3
Duration                    : 1 h 29 min
Bit rate mode               : Constant
Bit rate                    : 192 kb/s
Channel(s)                  : 2 channels
Channel layout              : L R
Sampling rate               : 48.0 kHz
Frame rate                  : 31.250 FPS (1536 SPF)
Bit depth                   : 16 bits
Compression mode            : Lossy
Stream size                 : 123 MiB (1%)
Title                       : Dub [LeDoyen, license] 2.0 [stereo] 192 Kbps
Language                    : Ukrainian
Service kind                : Complete Main
Default                     : Yes
Forced                      : Yes

Audio #2
ID                          : 3
Format                      : XLL X
Format/Info                 : Digital Theater Systems
Commercial name             : -HD Master Audio
Codec ID                    : A_DTS
Duration                    : 1 h 29 min
Bit rate mode               : Variable
Bit rate                    : 3 595 kb/s
Channel(s)                  : 8 channels
Channel(s)_Original         : Object Based
Channel layout              : Object Based
Sampling rate               : 48.0 kHz
Frame rate                  : 93.750 FPS (512 SPF)
Bit depth                   : 24 bits
Stream size                 : 2.25 GiB (12%)
Title                       : Original, :X (-HD MA) 7.1 3595 Kbps
Language                    : English
Default                     : No
Forced                      : No

Text #1
ID                          : 4
Format                      : UTF-8
Codec ID                    : S_TEXT/UTF8
Codec ID/Info               : UTF-8 Plain Text
Duration                    : 1 h 10 min
Bit rate                    : 1 b/s
Count of elements           : 27
Stream size                 : 828 Bytes (0%)
Title                       : UKR Forced
Language                    : Ukrainian
Default                     : Yes
Forced                      : Yes

Text #2
ID                          : 5
Format                      : PGS
Muxing mode                 : zlib
Codec ID                    : S_HDMV/PGS
Codec ID/Info               : Picture based subtitle format used on BDs/HD-DVDs
Duration                    : 1 h 21 min
Bit rate                    : 47.3 kb/s
Count of elements           : 3054
Stream size                 : 27.5 MiB (0%)
Title                       : Eng SDH
Language                    : English
Default                     : No
Forced                      : No

Text #3
ID                          : 6
Format                      : UTF-8
Codec ID                    : S_TEXT/UTF8
Codec ID/Info               : UTF-8 Plain Text
Duration                    : 1 h 21 min
Bit rate                    : 50 b/s
Count of elements           : 1152
Stream size                 : 30.2 KiB (0%)
Title                       : Eng full
Language                    : English
Default                     : No
Forced                      : No

Text #4
ID                          : 7
Format                      : UTF-8
Codec ID                    : S_TEXT/UTF8
Codec ID/Info               : UTF-8 Plain Text
Duration                    : 1 h 21 min
Bit rate                    : 108 b/s
Count of elements           : 1527
Stream size                 : 64.7 KiB (0%)
Title                       : Eng SDH Colored
Language                    : English
Default                     : No
Forced                      : No

Menu
00:00:00.000                : en:Chapter 01
00:03:06.102                : en:Chapter 02
00:07:57.935                : en:Chapter 03
00:11:12.838                : en:Chapter 04
00:16:15.766                : en:Chapter 05
00:20:07.497                : en:Chapter 06
00:24:07.988                : en:Chapter 07
00:28:56.818                : en:Chapter 08
00:32:55.348                : en:Chapter 09
00:39:01.839                : en:Chapter 10
00:42:44.186                : en:Chapter 11
00:46:47.179                : en:Chapter 12
00:50:55.635                : en:Chapter 13
00:56:12.077                : en:Chapter 14
01:00:02.265                : en:Chapter 15
01:05:41.228                : en:Chapter 16
01:10:14.543                : en:Chapter 17
01:14:33.760                : en:Chapter 18
01:19:29.723                : en:Chapter 19
01:21:56.995                : en:Chapter 20


Джерело: &
Подяка Sehrg-Gut'у та Electroz'у за українські доріжку та субтитри.

16.11.2018 реліз оновлено - замінено звук на ліцензію, додано форсовані субтитри.




Золотий реліз (завантажене не впливає на рейтинг)
 Трекер:    Зареєстрований   

Завантажити / скачати мультфільм українською



відео для новачків



 Зареєстрований:   2018-11-16 18:32
 Розмір:   18.41 GB 
 Оцінка мультфільму:   6.9/10 (Голосів: 42)
 ЗАЛИШАЙТЕСЬ ЯКОМОГА ДОВШЕ НА РОЗДАЧІ! ЗАВАНТАЖИВ САМ - ДАЙ ЗАВАНТАЖИТИ ІНШИМ!
   
Інші релізи
   Нікчемний Я 3 / Despicable Me 3 (2017) 1080p H.265 Ukr/Eng | Sub Eng -Star-Lord-  16 / 2   3.74 GB   2019-07-29 21:50 
   Нікчемний я 3 / Despicable Me 3 (2017) AVC Drool  10 / 0   1.54 GB   2018-11-16 23:03 
   Нікчемний я 3 / Despicable Me 3 (2017) 720p Ukr/Eng | Sub Eng igor911  7 / 0   3.46 GB   2018-11-16 19:10 
   Нікчемний я 3 / Despicable Me 3 (2017) 1080p Ukr/Eng | Sub Eng Electroz  10 / 0   7.13 GB   2018-11-15 22:32 
   Нікчемний я 3 / Despicable Me 3 (2017) Covenant  9 / 0   1.45 GB   2017-09-19 11:35 
Uberwinder 
VIP


З нами з: 18.11.16
Востаннє: 01.03.21
Повідомлень: 285

2017-11-29 06:40  
А сам мультфільм взагалі ні про що, намагалися виїхати на успіху попередніх частин, але вийшло посередньо...
Anonymous 







2018-11-16 18:33  
Реліз оновлено - замінено звук з на ліцензію, додано українські форсовані субтитри.
Ваш часовий пояс: GMT + 2 Години

Нова тема   Відповісти