Історія сучасної Британії з Ендрю Марром (Сезон 1) / Andrew Marr's History Of Modern Britain (Season 1) (2007) Ukr/Eng | Sub Ukr

Нові коментарі

Нова тема   Відповісти
Автор Повідомлення
Omikron 
VIP


З нами з: 03.01.12
Востаннє: 16.01.20
Повідомлень: 327

2017-09-20 20:51  
Історія сучасної Британії з Ендрю Марром (Сезон 1) / Andrew Marr's History Of Modern Britain (Season 1) (2007) Ukr/Eng | Sub Ukr

Історія сучасної Британії з Ендрю Марром (Сезон 1) / Andrew Marr's History Of Modern Britain (Season 1) (2007) Ukr/Eng | Sub Ukr


Можливо вас цікавлять ще ці документальні мінісеріали:


Жанр: документальний
Країна: Велика Британія



Кінокомпанія: BBC
Режисер: Том Гайлс / Tom Giles (1,5); Фатіма Саларія / Fatima Salaria (2); Френсіс Вотлі / Francis Whately (3), Робін Дешвуд / Robin Dashwood (4)
У фільмі знімались: Ендрю Марр / Andrew Marr

Сюжет:
Документальний цикл, що охоплює період історії Великої Британії від закінчення Другої світової війни до початку Міленіуму.


Українською мовою озвучено студією Омікрон спеціально для HURTOM.COM


Тривалість: 1 серія: ~59:00 (цілком серій: 5)
Перелік серій:
1. Вперед, Британіє!
2. Благословенний край
3. Втрачений рай
4. Революція!
5. Нова Британія
Якість:
Відео:
кодек:
розмір кадру: 720x576
бітрейт: ~1100 кб/с

Аудіо # 1:
мова: українська | Омікрон
переклад: двоголосий закадровий
кодек: 2.0
бітрейт: 192 кб/с

Аудіо # 2:
мова: англійська
переклад: оригінал
кодек: AС3 2.0
бітрейт: 128 кб/с

Субтитри:
мова: українська
тип: програмні (м'які)
формат: *.srt


Скріншоти










Звіт Info

Format :
Format version : Version 4 / Version 2
File size : 602 MiB
Duration : 59 min
Overall bit rate : 1 422 kb/s
Encoded date : UTC 2017-09-20 17:35:24
Writing application : v9.9.0 ('Pick Up') 64bit
Writing library : libebml v1.3.4 + v1.4.5

Video
ID : 1
Format : AVC
Format/Info : Advanced Video Codec
Format profile : [email protected]
Format settings, CABAC : Yes
Format settings, ReFrames : 8 frames
Codec ID : V_MPEG4/ISO/AVC
Duration : 59 min
Bit rate : 1 100 kb/s
Width : 720 pixels
Height : 576 pixels
Display aspect ratio : 16:9
Frame rate mode : Constant
Frame rate : 25.000 FPS
Standard : PAL
Color space : YUV
Chroma subsampling : 4:2:0
Bit depth : 8 bits
Scan type : Progressive
Bits/(Pixel*Frame) : 0.106
Stream size : 466 MiB (77%)
Writing library : core 148 r2721kMod 72d53ab
Encoding settings : cabac=1 / ref=8 / deblock=1:0:0 / analyse=0x3:0x133 / me=umh / subme=9 / psy=1 / fade_compensate=0.00 / psy_rd=1.00:0.00 / mixed_ref=1 / me_range=16 / chroma_me=1 / trellis=2 / 8x8dct=1 / cqm=0 / deadzone=21,11 / fast_pskip=1 / chroma_qp_offset=-2 / threads=7 / lookahead_threads=1 / sliced_threads=0 / nr=0 / decimate=1 / interlaced=0 / bluray_compat=0 / constrained_intra=0 / fgo=0 / bframes=3 / b_pyramid=2 / b_adapt=2 / b_bias=0 / direct=3 / weightb=1 / open_gop=0 / weightp=2 / keyint=250 / keyint_min=25 / scenecut=40 / intra_refresh=0 / rc_lookahead=60 / rc=2pass / mbtree=1 / bitrate=1100 / ratetol=1.0 / qcomp=0.60 / qpmin=0 / qpmax=69 / qpstep=4 / cplxblur=20.0 / qblur=0.5 / ip_ratio=1.40 / aq=1:1.00
Language : English
Default : Yes
Forced : No

Audio #1
ID : 2
Format : AC-3
Format/Info : Audio Coding 3
Mode extension : CM (complete main)
Format settings, Endianness : Big
Codec ID : A_AC3
Duration : 59 min
Bit rate mode : Constant
Bit rate : 192 kb/s
Channel(s) : 2 channels
Channel positions : Front: L R
Sampling rate : 48.0 kHz
Frame rate : 31.250 FPS (1536 spf)
Compression mode : Lossy
Stream size : 81.3 MiB (14%)
Title : VO Omikron studio for hurtom.com
Language : Ukrainian
Default : Yes
Forced : No

Audio #2
ID : 3
Format : AC-3
Format/Info : Audio Coding 3
Mode extension : CM (complete main)
Format settings, Endianness : Big
Codec ID : A_AC3
Duration : 59 min
Bit rate mode : Constant
Bit rate : 128 kb/s
Channel(s) : 2 channels
Channel positions : Front: L R
Sampling rate : 48.0 kHz
Frame rate : 31.250 FPS (1536 spf)
Compression mode : Lossy
Stream size : 54.2 MiB (9%)
Language : English
Default : No
Forced : No

Text
ID : 4
Format : UTF-8
Codec ID : S_TEXT/UTF8
Codec ID/Info : UTF-8 Plain Text
Duration : 58 min
Bit rate : 140 b/s
Count of elements : 803
Stream size : 60.2 KiB (0%)
Language : Ukrainian
Default : No
Forced : No


Авторський реліз (завантажувати можна без реєстрації)
 Трекер:    Зареєстрований   

Завантажити / скачати торрент



відео для новачків



 Зареєстрований:   2017-09-20 20:51
 Розмір:   2.93 GB 
 Оцінка:   10/10 (Голосів: 12)
   
bot 
робот


З нами з: 30.09.07
Востаннє: 26.05.05
Повідомлень: 24614

2017-09-20 20:56  
Тему перенесено з Ріпи від Омікрону до форуму BBC


Omikron

kuzyag 
Частий відвідувач


З нами з: 17.03.09
Востаннє: 02.06.20
Повідомлень: 26

2017-09-21 06:06  
Дуже класний серіал. Для всіх, хто цікавиться історією і політикою.

Є ще частина від початку до середини 20-го століття:
https://toloka.to/t82582

oberezny 
Свій


З нами з: 03.10.12
Востаннє: 27.10.19
Повідомлень: 92

2017-09-21 18:01  
Виправте англійську назву з «Andrew Marrs History...» на «Andrew Marr's History...» як на ориґінальній обкладинці
Omikron 
VIP


З нами з: 03.01.12
Востаннє: 16.01.20
Повідомлень: 327

2017-09-21 22:28  
Ваш часовий пояс: GMT + 2 Години

Нова тема   Відповісти