Пірати Карибського моря: Помста Салазара / Pirates of the Caribbean: Dead Men Tell No Tales (2017) 720p-mini (60fps) Ukr/Eng | Sub Eng

Нові коментарі

Нова тема   Відповісти
Автор Повідомлення
Drool 
VIP


З нами з: 17.04.10
Востаннє: 11.12.17
Повідомлень: 1411

2017-09-19 11:45  
Пірати Карибського моря: Помста Салазара / Pirates of the Caribbean: Dead Men Tell No Tales (2017) 720p-mini (60fps) Ukr/Eng | Sub Eng

Пірати Карибського моря: Помста Салазара / Pirates of the Caribbean: Dead Men Tell No Tales (2017) 720p-mini (60fps) Ukr/Eng | Sub Eng


Жанр: фентезі, екшн, комедія, пригодницький
Країна: США


Діти до 13 років допускаються на фільм тільки з батьками
Настійне застереження батькам. Деякий матеріал може бути невідповідним для дітей до 13 років. Цей рейтинг показує, що оцінений фільм може бути невідповідним для дітей. Батьки повинні бути особливо обережні, дозволяючи своїм маленьким дітям перегляд. Грубе або тривале насильство відсутнє; сексуальна орієнтація на наготу відсутня; деякі сцени вживання наркотиків можуть бути присутніми; можна почути одиничні вживання грубої сексуальної лексики. Присутня епізодична оголеність (не враховуючи репродуктивні органи). Присутні сексуальні натяки і натяки на гомосексуалізм чи сексуальні збочення.
Кінокомпанія: Walt Disney Pictures, Jerry Bruckheimer Films, Infinitum Nihil
Режисер: Хоакім Роннінґ, Еспен Сандберґ
Актори: Джонні Деп, Хав’єр Бардем, Джеффрі Раш, Брентон Туейтс, Кая Скоделаріо, Орландо Блум, Кіра Найтлі, Стівен Ґрем, Девід Венем, Кевін МакНеллі, Пол МакКартні та інші

Сюжет:
Щасливчик капітан Джек Горобець переживає важкі часи, адже удача його покинула. Колись дуже давно в молодості Джек Горобець знищив лютого іспанського борця з піратами капітана Салазара. Цей страшний капітан утік разом зі своєю командою з Диявольського трикутника, щоб знищити всіх піратів, особливо Горобця. Єдиний шанс Джека вижити – знайти легендарний тризуб Посейдона. Цей неймовірно сильний артефакт дозволить своєму господареві бути володарем усіх морів. І допоможуть у цьому капітану Джеку Горобцю його нові друзі – Генрі й Каріна Сміт. Неймовірні пригоди Джека Горобця тривають!


Тривалість: 02:09:07
Якість: 720p-mini
Відео:
кодек:
розмір кадру: 1280x534
бітрейт: 6636 кб/с
crf: 16.6
кадрів на секунду: 60.000 к/с

Аудіо # 1:
мова: українська
переклад: професійний дубльований
кодек: 5.1
бітрейт: 448 кб/с

Аудіо # 2:
мова: англійська
переклад: оригінал
кодек: 5.1
бітрейт: 448 кб/с

Субтитри 1:
мова: українська
тип: програмні (м'які, форсовані)
формат: *.srt

Субтитри 2,3:
мова: англійська
тип: програмні (м'які, повні + SDH)
формат: *.srt
Info
Код:
General
Unique ID                                : 208243860870206501017030636918103114453 (0x9CAA4F097C10E25EECD0AAE9275082D5)
Complete name                            : /mnt/disk_d/Video/Pirates.of.the.Caribbean.Dead.Men.Tell.No.Tales.2017.Ukr.Dub..720p.60fps.
Format                                   :
Format version                           : Version 4 / Version 2
File size                                : 6.80 GiB
Duration                                 : 2 h 9 min
Overall bit rate                         : 7 536 kb/s
Movie name                               : Пірати Карибського моря: Помста Салазара / Pirates of the Caribbean: Dead Men Tell No Tales (2017) 720p [60 fps] | NNNB
Encoded date                             : UTC 2017-09-19 08:59:54
Writing application                      : mkvmerge v14.0.0 ('Flow') 64bit
Writing library                          : libebml v1.3.4 + libmatroska v1.4.7
Cover                                    : Yes
Attachments                              : cover.png

Video
ID                                       : 1
Format                                   : AVC
Format/Info                              : Advanced Video Codec
Format profile                           : [email protected]
Format settings, CABAC                   : Yes
Format settings, RefFrames               : 9 frames
Codec ID                                 : V_MPEG4/ISO/AVC
Duration                                 : 2 h 9 min
Bit rate                                 : 6 636 kb/s
Width                                    : 1 280 pixels
Height                                   : 534 pixels
Display aspect ratio                     : 2.40:1
Frame rate mode                          : Constant
Frame rate                               : 60.000 FPS
Color space                              : YUV
Chroma subsampling                       : 4:2:0
Bit depth                                : 8 bits
Scan type                                : Progressive
Bits/(Pixel*Frame)                       : 0.162
Stream size                              : 5.98 GiB (88%)
Title                                    : Пірати Карибського моря: Помста Салазара / Pirates of the Caribbean: Dead Men Tell No Tales (2017) 720p [60 fps] | NNNB
Writing library                          : core 146 r2538 121396c
Encoding settings                        : cabac=1 / ref=9 / deblock=1:0:0 / analyse=0x3:0x113 / me=umh / subme=11 / psy=1 / psy_rd=1.00:0.00 / mixed_ref=1 / me_range=32 / chroma_me=1 / trellis=2 / 8x8dct=1 / cqm=0 / deadzone=21,11 / fast_pskip=0 / chroma_qp_offset=-2 / threads=12 / lookahead_threads=1 / sliced_threads=0 / nr=0 / decimate=1 / interlaced=0 / bluray_compat=0 / constrained_intra=0 / bframes=5 / b_pyramid=2 / b_adapt=2 / b_bias=0 / direct=3 / weightb=1 / open_gop=0 / weightp=2 / keyint=250 / keyint_min=25 / scenecut=40 / intra_refresh=0 / rc=crf / mbtree=0 / crf=16.6 / qcomp=0.60 / qpmin=0 / qpmax=69 / qpstep=4 / ip_ratio=1.40 / pb_ratio=1.30 / aq=3:1.00
Default                                  : Yes
Forced                                   : Yes

Audio #1
ID                                       : 2
Format                                   : AC-3
Format/Info                              : Audio Coding 3
Format settings, Endianness              : Big
Codec ID                                 : A_AC3
Duration                                 : 2 h 9 min
Bit rate mode                            : Constant
Bit rate                                 : 448 kb/s
Channel(s)                               : 6 channels
Channel positions                        : Front: L C R, Side: L R, LFE
Sampling rate                            : 48.0 kHz
Frame rate                               : 31.250 FPS (1536 SPF)
Bit depth                                : 16 bits
Compression mode                         : Lossy
Stream size                              : 414 MiB (6%)
Title                                    : 5.1 @ 448 kbps
Language                                 : Ukrainian
Service kind                             : Complete Main
Default                                  : Yes
Forced                                   : Yes

Audio #2
ID                                       : 3
Format                                   : AC-3
Format/Info                              : Audio Coding 3
Format settings, Endianness              : Big
Codec ID                                 : A_AC3
Duration                                 : 2 h 9 min
Bit rate mode                            : Constant
Bit rate                                 : 448 kb/s
Channel(s)                               : 6 channels
Channel positions                        : Front: L C R, Side: L R, LFE
Sampling rate                            : 48.0 kHz
Frame rate                               : 31.250 FPS (1536 SPF)
Bit depth                                : 16 bits
Compression mode                         : Lossy
Stream size                              : 414 MiB (6%)
Title                                    : 5.1 @ 448 kbps
Language                                 : English
Service kind                             : Complete Main
Default                                  : No
Forced                                   : No

Text #1
ID                                       : 4
Format                                   : UTF-8
Codec ID                                 : S_TEXT/UTF8
Codec ID/Info                            : UTF-8 Plain Text
Duration                                 : 1 h 59 min
Bit rate                                 : 0 b/s
Count of elements                        : 17
Stream size                              : 754 Bytes (0%)
Title                                    : Forced
Language                                 : Ukrainian
Default                                  : Yes
Forced                                   : Yes

Text #2
ID                                       : 5
Format                                   : UTF-8
Codec ID                                 : S_TEXT/UTF8
Codec ID/Info                            : UTF-8 Plain Text
Duration                                 : 1 h 55 min
Bit rate                                 : 45 b/s
Count of elements                        : 1435
Stream size                              : 38.2 KiB (0%)
Title                                    : Full
Language                                 : English
Default                                  : No
Forced                                   : No

Text #3
ID                                       : 6
Format                                   : UTF-8
Codec ID                                 : S_TEXT/UTF8
Codec ID/Info                            : UTF-8 Plain Text
Duration                                 : 2 h 7 min
Bit rate                                 : 48 b/s
Count of elements                        : 1772
Stream size                              : 45.8 KiB (0%)
Title                                    : SDH
Language                                 : English
Default                                  : No
Forced                                   : No

Menu
00:00:00.000                             : en:00:00:00.000
00:05:49.516                             : en:00:05:49.516
00:08:34.222                             : en:00:08:34.222
00:13:40.820                             : en:00:13:40.820
00:16:29.155                             : en:00:16:29.155
00:22:33.852                             : en:00:22:33.852
00:25:19.268                             : en:00:25:19.268
00:28:06.101                             : en:00:28:06.101
00:31:41.775                             : en:00:31:41.775
00:33:44.814                             : en:00:33:44.814
00:37:02.053                             : en:00:37:02.053
00:42:27.712                             : en:00:42:27.712
00:49:09.071                             : en:00:49:09.071
00:54:00.279                             : en:00:54:00.279
00:57:19.394                             : en:00:57:19.394
01:00:38.718                             : en:01:00:38.718
01:08:29.939                             : en:01:08:29.939
01:11:57.021                             : en:01:11:57.021
01:16:50.940                             : en:01:16:50.940
01:19:27.471                             : en:01:19:27.471
01:25:04.808                             : en:01:25:04.808
01:27:42.174                             : en:01:27:42.174
01:31:43.790                             : en:01:31:43.790
01:38:22.814                             : en:01:38:22.814
01:42:36.776                             : en:01:42:36.776
01:47:23.562                             : en:01:47:23.562
01:52:58.689                             : en:01:52:58.689
01:59:09.934                             : en:01:59:09.934
Скріншоти




Джерело відеоряду:
Особиста оцінка: 8 - мені сподобалося


 Трекер:    Зареєстрований   

Завантажити / скачати фільм українською



відео для новачків



 Зареєстрований:   2017-09-19 11:51
 Розмір:   6.8 GB 
 Оцінка фільму:   9/10 (Голосів: 50)
   
ftp 
Новенький


З нами з: 24.05.12
Востаннє: 05.12.17
Повідомлень: 18

2017-09-20 19:26  
60 fps рулить, картинка настільки жива
maSiya 
Новенький


З нами з: 09.06.15
Востаннє: 26.11.17
Повідомлень: 6

2017-09-23 20:46  
Роздачу а
Too Much 
Частий відвідувач


З нами з: 18.10.14
Востаннє: 26.11.17
Повідомлень: 42

2017-09-23 21:51  
Перепрошую, але оскільки кадрів на секунду 60, то чи присутні в відео артефакти?
Drool 
VIP


З нами з: 17.04.10
Востаннє: 11.12.17
Повідомлень: 1411

2017-09-24 14:33  
Too Much написано:
Перепрошую, але оскільки кадрів на секунду 60, то чи присутні в відео артефакти?
Оскільки це екстраполяція до 60fps, то від артефактів повністю позбавитись неможливо в принципі. Але автор відеоряду NNNB наймайстерніше виготовляє такі ріпи, тому їх дуже мало.
AndriyKosh 
Частий відвідувач


З нами з: 02.10.11
Востаннє: 12.12.17
Повідомлень: 41

2017-09-26 18:42  
А 60 фпс є на 1080Р? Колись дивився людей Х з 60 фпс - дуже сподобалось.
Drool 
VIP


З нами з: 17.04.10
Востаннє: 11.12.17
Повідомлень: 1411

2017-09-27 21:37  
AndriyKosh написано:
А 60 фпс є на 1080Р? Колись дивився людей Х з 60 фпс - дуже сподобалось.
Для мене це буде затяжко роздати. Але якщо ви знайдете такий відеоряд - свистіть, підкажу, як зробити власний реліз і роздати на толоці Wink (1) І вам добре, і люди подякують.
Night-RacEr27 
Новенький


З нами з: 26.12.14
Востаннє: 06.12.17
Повідомлень: 5

2017-10-17 00:04  
У мене питання. Лише у мене файл намертво зависає на 01:00:39? На ТВ викидує помилку та неможливість файл мотати. Виявилося, що на ноутбуці така ж сама біда, але без помилки - просто зависає кадр. Допоможіть, будь ласка!
Drool 
VIP


З нами з: 17.04.10
Востаннє: 11.12.17
Повідомлень: 1411

2017-10-17 07:08  
Night-RacEr27 написано:
У мене питання. Лише у мене файл намертво зависає на 01:00:39? На ТВ викидує помилку та неможливість файл мотати. Виявилося, що на ноутбуці така ж сама біда, але без помилки - просто зависає кадр. Допоможіть, будь ласка!
Щойно перевірив - ніяких проблем. Спробуйте перехешувати файл, може бути пошкодження.
Ваш часовий пояс: GMT + 2 Години

Нова тема   Відповісти