Формула 1. Сезон 2017. Етап 14. Гран-Прі Сінгапуру. Перегони (17.09.2017) 1080p

Нові коментарі

Нова тема   Відповісти
Автор Повідомлення
sergiyko.5 
VIP


З нами з: 25.02.16
Востаннє: 22.09.17
Повідомлень: 1065

2017-09-17 18:30  
Формула 1. Сезон 2017. Етап 14. Гран-Прі Сінгапуру. Перегони (17.09.2017) 1080p

Формула 1. Сезон 2017. Етап 14. Гран-Прі Сінгапуру. Перегони (17.09.2017) 1080p

Вид спорту: Перегони Формула 1
Джерело: F1UA

Коротенький опис:
17 вересня 2017 року відбулись перегони чотирнадцятого етапу Формули 1 Гран-Прі Сінгапуру.

Тривалість: 02:38:07
Якість:

Відео: кодек: розмір кадру: 1920 х 1080 бітрейт: 3000 кб/с
Аудіо: мова: українська, переклад: коментар: | Максим Подзігун | кодек:, 2.0 бітрейт: 160 кб/с
Про файл:
General
Complete name : D:\Torrents\SPORT\F1.2017.Race.\F1.2017.14.Singapore.Race..1080p.Ukr.mp4
Format : MPEG-4
Format profile : Base Media
Codec ID : isom (isom/iso2/avc1/mp41)
File size : 3.67 GiB
Duration : 2 h 23 min
Overall bit rate mode : Constant
Overall bit rate : 3 668 kb/s
Writing application : Lavf54.63.104

Video
ID : 1
Format : AVC
Format/Info : Advanced Video Codec
Format profile : [email protected]
Format settings, CABAC : Yes
Format settings, RefFrames : 2 frames
Codec ID : avc1
Codec ID/Info : Advanced Video Coding
Duration : 2 h 23 min
Bit rate mode : Constant
Bit rate : 3 500 kb/s
Width : 1 920 pixels
Height : 1 080 pixels
Display aspect ratio : 16:9
Frame rate mode : Constant
Frame rate : 25.000 FPS
Color space : YUV
Chroma subsampling : 4:2:0
Bit depth : 8 bits
Scan type : Progressive
Bits/(Pixel*Frame) : 0.068
Stream size : 3.50 GiB (95%)
Color range : Limited
Matrix coefficients : BT.601

Audio
ID : 2
Format :
Format/Info : Advanced Audio Codec
Format profile : LC
Codec ID : 40
Duration : 2 h 23 min
Bit rate mode : Constant
Bit rate : 160 kb/s
Channel(s) : 2 channels
Channel positions : Front: L R
Sampling rate : 44.1 kHz
Frame rate : 43.066 FPS (1024 SPF)
Compression mode : Lossy
Stream size : 164 MiB (4%)
Language : English
Default : Yes
Alternate group : 1
Скріншоти:


 Трекер:    Зареєстрований   

Завантажити / скачати торрент



відео для новачків



 Зареєстрований:   2017-09-17 18:30
 Розмір:   3.67 GB 
 Оцінка:   8/10 (Голосів: 5)
   
Ваш часовий пояс: GMT + 2 Години

Нова тема   Відповісти