Аквамарин / Aquamarine (2006) 720p Ukr/Eng | Sub Ukr/Eng

Нові коментарі

Нова тема   Відповісти
Останній раз роздавалося Siaivo (2018-12-16)
Автор Повідомлення
Anonymous 







2017-09-17 14:31  
Аквамарин / Aquamarine (2006) 720p Ukr/Eng | Sub Ukr/Eng



Жанр: комедія, драма, романтичний
Країна: США



Кінокомпанія: Twentieth Century Fox, Fox 2000 Pictures, Storefront Pictures
Режисер: Елізабет Аллен
Актори: Емма Робертс, Джоана 'JoJo' Левескі, Сара Пекстон, Джейк Макдорман

Сюжет:
Літо закінчується, і перед нерозлучними подругами Клер і Хейлі постає серйозна проблема: рівно через п'ять днів сім'я Хейлі перебирається на інший кінець світу! Допомогти дівчатам може тільки диво, і воно з'являється у вигляді прекрасної русалки Аквамарин, яку виносить на берег штормом. Мила, але зовсім недосвідчена в романтичних справах, вона пропонує дівчатам виконати одне їх бажання, якщо ті допоможуть їй знайти хлопця її мрії. Подруги намагаються заманити місцевого рятувальника, але результат виявляється досить далеким від очікуваного ... і стає ясно, що іноді твої бажання - це зовсім не те, чого ти в дійсності хочеш.


Тривалість: 01:43:32
Якість: 720p
Відео:
кодек:
розмір кадру: 1280 х 690
бітрейт: 5262 кб/с

Аудіо # 1:
мова: українська
переклад: багатоголосий закадровий 1+1
кодек: 5.1
бітрейт: 448 кб/с

Аудіо # 2:
мова: англійська
переклад: оригінал
кодек: 2.0
бітрейт: 192 кб/с

Субтитри:
мова: українська Blu-ray EUR
тип: програмні (м'які)
формат: *.srt

Субтитри:
мова: англійська
тип: програмні (м'які)
формат: *.srt
Info
General
Unique ID : 236509207446622735981427110926195472561 (0xB1EE0437ABD07D39BA7DCA2F9925B8B1)
Complete name : E:\Aquamarine.(2006).720p[ukr_eng][Hurtom].
Format :
Format version : Version 4 / Version 2
File size : 4.36 GiB
Duration : 1h 43mn
Overall bit rate : 6 022 Kbps
Movie name : AQUAMARINE_2006_BDRIP_1080P -BLUEBIRD
Encoded date : UTC 2017-09-21 07:38:26
Writing application : v8.8.0 ('Wind at my back') 64bit
Writing library : libebml v1.3.3 + v1.4.4
DURATION : 01:43:32.224000000
NUMBER_OF_FRAMES : 194132
NUMBER_OF_BYTES : 149093376
_STATISTICS_WRITING_APP : v8.8.0 ('Wind at my back') 64bit
_STATISTICS_WRITING_DATE_UTC : 2017-09-21 07:38:26
_STATISTICS_TAGS : BPS DURATION NUMBER_OF_FRAMES NUMBER_OF_BYTES

Video
ID : 1
Format : AVC
Format/Info : Advanced Video Codec
Format profile : [email protected]
Format settings, CABAC : Yes
Format settings, ReFrames : 5 frames
Codec ID : V_MPEG4/ISO/AVC
Duration : 1h 43mn
Bit rate : 5 262 Kbps
Nominal bit rate : 3 700 Kbps
Width : 1 280 pixels
Height : 690 pixels
Display aspect ratio : 1.85:1
Frame rate mode : Constant
Frame rate : 23.976 fps
Color space : YUV
Chroma subsampling : 4:2:0
Bit depth : 8 bits
Scan type : Progressive
Bits/(Pixel*Frame) : 0.248
Stream size : 3.81 GiB (87%)
Writing library : core 146 r2538 121396c
Encoding settings : cabac=1 / ref=5 / deblock=1:-1:-1 / analyse=0x3:0x113 / me=umh / subme=8 / psy=1 / psy_rd=1.00:0.15 / mixed_ref=1 / me_range=16 / chroma_me=1 / trellis=1 / 8x8dct=1 / cqm=0 / deadzone=21,11 / fast_pskip=1 / chroma_qp_offset=-3 / threads=3 / lookahead_threads=1 / sliced_threads=0 / nr=0 / decimate=1 / interlaced=0 / bluray_compat=0 / constrained_intra=0 / bframes=3 / b_pyramid=2 / b_adapt=2 / b_bias=0 / direct=3 / weightb=1 / open_gop=0 / weightp=2 / keyint=250 / keyint_min=23 / scenecut=40 / intra_refresh=0 / rc_lookahead=50 / rc=2pass / mbtree=1 / bitrate=3700 / ratetol=1.0 / qcomp=0.60 / qpmin=0 / qpmax=69 / qpstep=4 / cplxblur=20.0 / qblur=0.5 / ip_ratio=1.40 / aq=1:1.00
Default : Yes
Forced : No
DURATION : 01:43:32.088000000
NUMBER_OF_FRAMES : 216526
NUMBER_OF_BYTES : 4177077052
_STATISTICS_WRITING_APP : v8.8.0 ('Wind at my back') 64bit
_STATISTICS_WRITING_DATE_UTC : 2017-09-21 07:38:26
_STATISTICS_TAGS : BPS DURATION NUMBER_OF_FRAMES NUMBER_OF_BYTES

Audio #1
ID : 2
Format : AC-3
Format/Info : Audio Coding 3
Mode extension : CM (complete main)
Format settings, Endianness : Big
Codec ID : A_AC3
Duration : 1h 43mn
Bit rate mode : Constant
Bit rate : 448 Kbps
Channel(s) : 6 channels
Channel positions : Front: L C R, Side: L R, LFE
Sampling rate : 48.0 KHz
Bit depth : 16 bits
Compression mode : Lossy
Delay relative to video : -333ms
Stream size : 332 MiB (7%)
Title : 1+1
Language : Ukrainian
Default : Yes
Forced : Yes

Audio #2
ID : 3
Format : AC-3
Format/Info : Audio Coding 3
Mode extension : CM (complete main)
Format settings, Endianness : Big
Codec ID : A_AC3
Duration : 1h 43mn
Bit rate mode : Constant
Bit rate : 192 Kbps
Channel(s) : 2 channels
Channel positions : Front: L R
Sampling rate : 48.0 KHz
Bit depth : 16 bits
Compression mode : Lossy
Delay relative to video : -333ms
Stream size : 142 MiB (3%)
Language : English
Default : No
Forced : No

Text #1
ID : 4
Format : UTF-8
Codec ID : S_TEXT/UTF8
Codec ID/Info : UTF-8 Plain Text
Title : full
Language : Ukrainian
Default : No
Forced : No

Text #2
ID : 5
Format : UTF-8
Codec ID : S_TEXT/UTF8
Codec ID/Info : UTF-8 Plain Text
Title : SDH
Language : English
Default : No
Forced : No

Menu
00:00:00.000 : en:Chapter 01
00:02:15.009 : en:Chapter 02
00:03:45.642 : en:Chapter 03
00:07:04.132 : en:Chapter 04
00:11:43.536 : en:Chapter 05
00:15:05.863 : en:Chapter 06
00:20:40.155 : en:Chapter 07
00:25:16.515 : en:Chapter 08
00:29:36.149 : en:Chapter 09
00:36:57.173 : en:Chapter 10
00:42:53.320 : en:Chapter 11
00:46:16.482 : en:Chapter 12
00:48:12.264 : en:Chapter 13
00:54:11.247 : en:Chapter 14
01:01:17.173 : en:Chapter 15
01:10:50.579 : en:Chapter 16
01:17:55.128 : en:Chapter 17
01:20:28.490 : en:Chapter 18
01:22:56.179 : en:Chapter 19
01:24:05.040 : en:Chapter 20
01:27:37.877 : en:Chapter 21
01:30:54.240 : en:Chapter 22
01:35:40.151 : en:Chapter 23
01:38:08.799 : en:Chapter 24
Скріншоти





Джерело:
Особиста оцінка: 8
Подяка панам: xslim за звукову доріжку, Gelios за постер, NemoInFire синхронізація


 Трекер:    Зареєстрований   

Завантажити / скачати фільм українською



відео для новачків



 Зареєстрований:   2017-09-21 10:14
 Розмір:   4.36 GB 
 Оцінка фільму:   5.1/10 (Голосів: 21)
   
Інші релізи
   Аквамарин / Aquamarine (2006) NemoInFire  2 / 0   1.86 GB   2012-03-08 00:04 
0mage0 
VIP


З нами з: 06.10.15
Востаннє: 18.12.18
Повідомлень: 412

2018-09-04 07:01  
Фільм дитячий, але дивитися можна Happy
Ваш часовий пояс: GMT + 2 Години

Нова тема   Відповісти