Останній король / Birkebeinerne (2016) Remux 1080р Ukr/Nor | Sub Nor

Нові коментарі

Нова тема   Відповісти
Автор Повідомлення
IronBee 
Поважний учасник


З нами з: 08.02.10
Востаннє: 21.10.18
Повідомлень: 208

2017-09-16 19:31  
Останній король / Birkebeinerne (2016) Remux 1080р Ukr/Nor | Sub Nor

Останній король / Birkebeinerne (2016) Remux 1080р Ukr/Nor | Sub Nor


Жанр: бойовик, драма, пригодницький
Країна: Норвегія



Кінокомпанія: Newgrange Pictures, Nordisk Film Production, Paradox Film 3
Режисер: Нільс Гьоуп
Актори: Андерс Далберг, Асмунд Бреде Ейке, Elg Elgesem, Пол Сверре Валхейм Хаген, Торбйорн Харрі, Беньямін Хельстад, Крістофер Хівью, Стіг Хенрік Хофф, Еппе Леурсен, Микола Лі Каас, Адам Немет

Сюжет:
1204 рік, Норвегію роздирає громадянська війна. Незаконно народженого сина короля Хокона III Сверрессона і Інги з Вартейга зберігають в глибокій таємниці. Хлопчик був позашлюбним сином короля і народився після його смерті, що спровокувало криваву міжусобицю. Біркебейнери (ополчення, створене його дідом, королем Сверре Сігурдсон) визнали хлопчика спадкоємцем трону Норвегії. Однак католицькі священики оголосили полювання на дитину з метою його знищення.
У 1206 році група озброєних біркебейнериів допомогла Інзі і Хокону бігти на північ під заступництвом короля Інге Бордссона. По дорозі їх невеличкий загін потрапив у снігову бурю, але два могутніх воїна, Торстейн Шевла і Шервальд Шрукка, продовжували просуватися на лижах, несучи дитину на руках. Коли Хокона доставили в Тронхейм, король Інге взяв його під своє заступництво.


Тривалість: 01:39:25
Якість: Remux
Відео:
кодек:
розмір кадру: 1920 х 1080
бітрейт: 24 Mб/с

Аудіо # 1:
мова: українська
переклад: багатоголосий закадровий
кодек: 2.0
бітрейт: 192 кб/с

Аудіо # 2:
мова: норвезька
переклад: оригінал
кодек: -HD MA 5.1
бітрейт: 3724 кб/с

Субтитри # 1-2:
мова: норвезька
тип: пререндерні
формат: *.PGS
Info
General
Unique ID : 179117662523346420090560227257471471928 (0x86C0CE9663482E34BCBCACA01CBC1138)
Complete name : D:\Films\Останній король Birkebeinerne (2016) Remux 1080p Ukr Nor sub Nor [Hurtom].
Format :
Format version : Version 4 / Version 2
File size : 19.4 GiB
Duration : 1 h 39 min
Overall bit rate mode : Variable
Overall bit rate : 27.9 Mb/s
Encoded date : UTC 2017-09-16 12:55:30
Writing application : v15.0.0 ('Duel with the Devil') 64-bit
Writing library : libebml v1.3.5 + v1.4.5

Video
ID : 1
Format : AVC
Format/Info : Advanced Video Codec
Format profile : [email protected]
Format settings, CABAC : Yes
Format settings, ReFrames : 3 frames
Codec ID : V_MPEG4/ISO/AVC
Duration : 1 h 39 min
Bit rate mode : Variable
Bit rate : 24.0 Mb/s
Maximum bit rate : 35.0 Mb/s
Width : 1 920 pixels
Height : 1 080 pixels
Display aspect ratio : 16:9
Frame rate mode : Constant
Frame rate : 24.000 FPS
Standard : NTSC
Color space : YUV
Chroma subsampling : 4:2:0
Bit depth : 8 bits
Scan type : Progressive
Bits/(Pixel*Frame) : 0.482
Stream size : 16.6 GiB (86%)
Default : Yes
Forced : No
Color range : Limited
Color primaries : BT.709
Transfer characteristics : BT.709
Matrix coefficients : BT.709

Audio #1
ID : 2
Format : AC-3
Format/Info : Audio Coding 3
Mode extension : CM (complete main)
Format settings, Endianness : Big
Codec ID : A_AC3
Duration : 1 h 39 min
Bit rate mode : Constant
Bit rate : 192 kb/s
Channel(s) : 2 channels
Channel positions : Front: L R
Sampling rate : 48.0 kHz
Frame rate : 31.250 FPS (1536 spf)
Bit depth : 16 bits
Compression mode : Lossy
Stream size : 136 MiB (1%)
Language : Ukrainian
Default : Yes
Forced : No

Audio #2
ID : 3
Format :
Format/Info : Digital Theater Systems
Format profile : MA / Core
Mode : 16
Format settings, Endianness : Big
Codec ID : A_DTS
Duration : 1 h 39 min
Bit rate mode : Variable / Constant
Bit rate : 3 724 kb/s / 1 509 kb/s
Channel(s) : 6 channels
Channel positions : Front: L C R, Side: L R, LFE
Sampling rate : 48.0 kHz
Frame rate : 93.750 FPS (512 spf)
Bit depth : 24 bits
Compression mode : Lossless / Lossy
Stream size : 2.59 GiB (13%)
Language : Norwegian
Default : No
Forced : No

Text #1
ID : 4
Format : PGS
Muxing mode : zlib
Codec ID : S_HDMV/PGS
Codec ID/Info : Picture based subtitle format used on BDs/HD-DVDs
Duration : 1 h 29 min
Bit rate : 1 645 b/s
Count of elements : 106
Stream size : 1.06 MiB (0%)
Language : Norwegian
Default : Yes
Forced : No

Text #2
ID : 5
Format : PGS
Muxing mode : zlib
Codec ID : S_HDMV/PGS
Codec ID/Info : Picture based subtitle format used on BDs/HD-DVDs
Duration : 1 h 36 min
Bit rate : 16.1 kb/s
Count of elements : 1196
Stream size : 11.1 MiB (0%)
Language : Norwegian
Default : No
Forced : No
Скріншоти




За запис з ТБ дякую пану Bohdan237, за синхронізацію - пану Arsenfpu.

Джерело: &
Особиста оцінка: 9 - давно не бачив настільки якісне кіно


Золотий реліз (завантажене не впливає на рейтинг)
 Трекер:    Зареєстрований   

Завантажити / скачати фільм українською



відео для новачків



 Зареєстрований:   2017-09-16 19:31
 Розмір:   19.37 GB 
 Оцінка фільму:   8.2/10 (Голосів: 15)
   
Інші релізи
ultramuha 
Частий відвідувач


З нами з: 22.09.13
Востаннє: 15.10.18
Повідомлень: 33

2017-09-24 20:47  
непоганий фільм. хоча на 9 не тягне. часами дивлячись як нормани розсікають на лижах у 1200 році, складається враження що фільм спонсорував редбул) хто любить історичну тематику, пригоди, драми- тим фільм зайде.
casper101 
VIP


З нами з: 03.12.09
Востаннє: 21.10.18
Повідомлень: 321

2017-10-13 13:15  
720р буде?
igor911 
Відео Гуртом
Відео Гуртом


З нами з: 18.01.08
Востаннє: 22.10.18
Повідомлень: 11263

2017-10-13 22:46  
casper101 написано:
720р буде?

720p

Ваш часовий пояс: GMT + 2 Години

Нова тема   Відповісти