БЕЗ ОБМЕЖЕНЬ - Тихий концерт (2017) 1080p | Rock

Нові коментарі

Нова тема   Відповісти
Автор Повідомлення
sergiyko.5 
VIP


З нами з: 25.02.16
Востаннє: 20.10.17
Повідомлень: 1135

2017-09-15 14:46  
БЕЗ ОБМЕЖЕНЬ - Тихий концерт (2017) 1080p | Rock

БЕЗ ОБМЕЖЕНЬ - Тихий концерт (2017) 1080p | Rock

Стиль: Rock
Країна: Україна

Учасники гурту:
Олександр Адаменко – бас-гітара;
Олексій Бережной – ударні;
Андрій Радько - гітара;
Ігор Рибар – гітара;
Сергій Танчинець - фронтмен.

Опис: ​14 вересня відбувся Тихий концерт БЕЗ ОБМЕЖЕНЬ в Roof, де вперше було виконано акустичну програму у вишині над Києвом. Це був камерний концерт, де по-новому прозвучали відомі пісні гурту. В цей вечір було почуте кожне слово, кожен подих, кожен відтінок почуттів як стати ближчими один до одного

Тривалість: 01:28:52
Якість:

Відео: кодек: розмір кадру: 1920 х 1080 бітрейт: 3999 кб/с
Аудіо: мова: українська кодек: 2.0 бітрейт: 192 кб/с
Про файл:

General
Complete name : D:\Torrents\MUSIC\БЕЗ ОБМЕЖЕНЬ-Тихий концерт.2017..1080p.mp4
Format : MPEG-4
Format profile : Base Media
Codec ID : isom (isom/iso2/avc1/mp41)
File size : 2.61 GiB
Duration : 1 h 28 min
Overall bit rate : 4 197 kb/s
Writing application : Lavf54.63.104

Video
ID : 1
Format : AVC
Format/Info : Advanced Video Codec
Format profile : [email protected]
Format settings, CABAC : Yes
Format settings, RefFrames : 3 frames
Format settings, GOP : M=1, N=75
Codec ID : avc1
Codec ID/Info : Advanced Video Coding
Duration : 1 h 28 min
Bit rate : 3 999 kb/s
Width : 1 920 pixels
Height : 1 080 pixels
Display aspect ratio : 16:9
Frame rate mode : Constant
Frame rate : 25.000 FPS
Color space : YUV
Chroma subsampling : 4:2:0
Bit depth : 8 bits
Scan type : Progressive
Bits/(Pixel*Frame) : 0.077
Stream size : 2.48 GiB (95%)

Audio
ID : 2
Format :
Format/Info : Advanced Audio Codec
Format profile : LC
Codec ID : 40
Duration : 1 h 28 min
Bit rate mode : Constant
Bit rate : 192 kb/s
Channel(s) : 2 channels
Channel positions : Front: L R
Sampling rate : 44.1 kHz
Frame rate : 43.066 FPS (1024 SPF)
Compression mode : Lossy
Stream size : 122 MiB (5%)
Language : English
Default : Yes
Alternate group : 1
Скріншоти:


Золотий реліз (завантажене не впливає на рейтинг)
 Трекер:    Зареєстрований   

Завантажити / скачати кліп українською



відео для новачків



 Зареєстрований:   2017-09-30 17:57
 Розмір:   2.61 GB 
 Оцінка кліпу:   10/10 (Голосів: 6)
   
Neytreenor 
Відео Гуртом - запис з ТБ
Відео Гуртом - запис з ТБ


З нами з: 03.04.11
Востаннє: 20.10.17
Повідомлень: 752

2017-09-30 15:08  
Дякую за концерт, але з відео щось явно не так, зображення часто "підвисає". На тому ж megogo зараз є запис, дещо коротше та з плашкою megogo live, але в цілому приємніше для ока.
sergiyko.5 
VIP


З нами з: 25.02.16
Востаннє: 20.10.17
Повідомлень: 1135

2017-09-30 17:59  
Neytreenor
Так є проблема. Не продивляюсь всі файли що релізю, часу не вистачить.

Додано через 17 хвилин 6 секунд:

Торент оновлено. Відеофайл записний в новій версії.

Ваш часовий пояс: GMT + 2 Години

Нова тема   Відповісти