Бріклбері (Сезон 3) / Brickleberry (Season 3) (2014-2015) 720p

Нові коментарі

Нова тема   Відповісти
Автор Повідомлення
Dark Invader 
Модератор відео


З нами з: 06.01.11
Востаннє: 14.04.21
Повідомлень: 3176

2017-09-14 19:04  
Бріклбері (Сезон 3) / Brickleberry (Season 3) (2014-2015) 720p

Бріклбері (Сезон 3) / Brickleberry (Season 3) (2014-2015) 720p


Жанр: комедія, чорний гумор, сатира
Країна: США



Кінокомпанія: Damn! Show Productions, Black Heart Productions, Fox 21 / Comedy Central
Режисер: Карл Фаруоло, Кріс Сонг та інші
Актори: Девід Херман, Деніел Тош, Кейтлін Олсен, Роджер Блек, Джеррі Майнор, Том Кенні та інші

Сюжет:
Мультсеріал про групу лісників-роздовбаїв, що зіткнулися з закриттям національного парку. На допомогу рейнджерам приходить новенький, чия мета - перетворити й зберегти заповідник.


Тривалість: 1 серія: ~ 22 хв. (цілком серій: 13)
Перелік серій
01. Obamascare
02. In Da Club
03. Miss National Park
04. That Brother's My Father
05. Write 'Em Cowboy
06. Old Wounds
07. Baby Daddy
08. Steve the Fearless Pilot
09. High Stakes
10. Amber Alert
11. Cops and Bottoms
12. Campin' Ain't Easy
13. Global Warning
Якість: 720p
Відео:
кодек:
розмір кадру: 1280 х 720
бітрейт: ~ 3 000 кб/с

Аудіо:
мова: українська
переклад: двоголосий закадровий
кодек: 5.1
бітрейт: 448 кб/с

Переклад і озвучення виконано:
студією
Інформація про озвучення:
Переклад: AdrianZP.
Ролі озвучили: AdrianZP, MariAm.
Робота зі звуком: AdrianZP
Info
General
Unique ID : 231167375605551140491439865809334574794 (0xADE93792D81B9E859CE5BAE6DD861ECA)
Complete name : D:\Нова папка\Brickleberry - Season 3 (2014-2015) 720p [Ukr] [FanVoxUA]\[03x01] Obamascare [Ukr] 720p [FanVoxUA].
Format :
Format version : Version 4 / Version 2
File size : 535 MiB
Duration : 21 min
Overall bit rate : 3 455 kb/s
Encoded date : UTC 2017-09-13 15:36:39
Writing application : v9.4.0 ('Knurl') 64bit
Writing library : libebml v1.3.4 + v1.4.5
Cover : Yes
Attachments : cover.jpg

Video
ID : 1
Format : AVC
Format/Info : Advanced Video Codec
Format profile : [email protected]
Format settings, CABAC : Yes
Format settings, ReFrames : 5 frames
Codec ID : V_MPEG4/ISO/AVC
Duration : 21 min
Bit rate : 3 000 kb/s
Width : 1 280 pixels
Height : 720 pixels
Display aspect ratio : 16:9
Frame rate mode : Constant
Frame rate : 23.976 (24000/1001) FPS
Color space : YUV
Chroma subsampling : 4:2:0
Bit depth : 8 bits
Scan type : Progressive
Bits/(Pixel*Frame) : 0.136
Stream size : 464 MiB (87%)
Writing library : core 130 r2273 b3065e6
Encoding settings : cabac=1 / ref=5 / deblock=1:0:0 / analyse=0x3:0x113 / me=umh / subme=8 / psy=1 / psy_rd=1.00:0.00 / mixed_ref=1 / me_range=16 / chroma_me=1 / trellis=1 / 8x8dct=1 / cqm=0 / deadzone=21,11 / fast_pskip=1 / chroma_qp_offset=-2 / threads=12 / lookahead_threads=2 / sliced_threads=0 / nr=0 / decimate=1 / interlaced=0 / bluray_compat=0 / constrained_intra=0 / bframes=3 / b_pyramid=2 / b_adapt=2 / b_bias=0 / direct=3 / weightb=1 / open_gop=0 / weightp=2 / keyint=240 / keyint_min=24 / scenecut=40 / intra_refresh=0 / rc_lookahead=50 / rc=abr / mbtree=1 / bitrate=3000 / ratetol=1.0 / qcomp=0.60 / qpmin=0 / qpmax=69 / qpstep=4 / vbv_maxrate=25000 / vbv_bufsize=31250 / nal_hrd=none / ip_ratio=1.40 / aq=1:1.00
Language : English
Default : Yes
Forced : No
Color range : Limited
Color primaries : BT.709
Transfer characteristics : BT.709
Matrix coefficients : BT.709

Audio
ID : 2
Format : AC-3
Format/Info : Audio Coding 3
Mode extension : CM (complete main)
Format settings, Endianness : Big
Codec ID : A_AC3
Duration : 21 min
Bit rate mode : Constant
Bit rate : 448 kb/s
Channel(s) : 6 channels
Channel positions : Front: L C R, Side: L R, LFE
Sampling rate : 48.0 kHz
Frame rate : 31.250 FPS (1536 spf)
Compression mode : Lossy
Stream size : 69.3 MiB (13%)
Title : FanVoxUA
Language : Ukrainian
Default : Yes
Forced : No
Торрент-файл оновлено (13.03.2018)
Додано 12-13 серії.
Повний сезон!


Скріншоти:


Джерело: &
Особиста оцінка: 10 - без зайвих вагань рекомендую всім любителям "Південного Парку" і тому подібних мультів!


Авторський реліз (завантажувати можна без реєстрації)
 Трекер:    Зареєстрований   

Завантажити / скачати мультфільм українською



відео для новачків



 Зареєстрований:   2018-03-13 21:45
 Розмір:   6.77 GB 
 Оцінка мультсеріалу:   9.7/10 (Голосів: 31)
   
AlexKraftwerk 
Новенький


З нами з: 15.02.12
Востаннє: 14.04.21
Повідомлень: 19

2017-09-14 19:58  
Ура ! Нарешті 3-ій сезон ! Чекав майже 3 роки ... й дочекався=) Дякую FanVoxUA !
kolisnykzid 
Новенький


З нами з: 08.04.11
Востаннє: 10.03.19
Повідомлень: 3

2017-09-14 20:19  
AlexKraftwerk
І сайту СІМПСОНИ UA =)

Dark Invader 
Модератор відео


З нами з: 06.01.11
Востаннє: 14.04.21
Повідомлень: 3176

2017-09-22 20:12  
Торрент-файл оновлено (22.09.2017)
Додано 2 серію.

Dark Invader 
Модератор відео


З нами з: 06.01.11
Востаннє: 14.04.21
Повідомлень: 3176

2017-10-16 18:53  
Торрент-файл оновлено (16.10.2017)
Додано 3 серію.

Dark Invader 
Модератор відео


З нами з: 06.01.11
Востаннє: 14.04.21
Повідомлень: 3176

2017-11-06 23:32  
Торрент-файл оновлено (06.11.2017)
Додано 4 серію.

Dark Invader 
Модератор відео


З нами з: 06.01.11
Востаннє: 14.04.21
Повідомлень: 3176

2017-12-03 20:44  
Торрент-файл оновлено (03.12.2017)
Додано 5 серію.

ser_rocko 
Поважний учасник


З нами з: 02.09.08
Востаннє: 14.04.21
Повідомлень: 225

2017-12-04 01:07  
На жаль озвучення далеко не дотягує до QTV. Дуже прикро, що вони так і не озвучили 3 сезон. Особливо невдало звучить Вуді Джонсон. Якщо не згадувати про Коні.
Dark Invader 
Модератор відео


З нами з: 06.01.11
Востаннє: 14.04.21
Повідомлень: 3176

2017-12-14 22:41  
Торрент-файл оновлено (14.12.2017)
Додано 6-7 серії.

jaroslove 
Свій


З нами з: 02.09.11
Востаннє: 07.04.21
Повідомлень: 141

2018-01-03 15:14  
Просто "чума", щиро дякую Вам! Стільки часу чекав, ото я сьогодні з дружиною потішусь перед сном! Happy
Dark Invader 
Модератор відео


З нами з: 06.01.11
Востаннє: 14.04.21
Повідомлень: 3176

2018-02-12 19:00  
Торрент-файл оновлено (12.02.2018)
Додано 8-11 серії.

Dark Invader 
Модератор відео


З нами з: 06.01.11
Востаннє: 14.04.21
Повідомлень: 3176

2018-03-13 21:45  
Торрент-файл оновлено (13.03.2018)
Додано 12-13 серії.
Повний сезон!

simpsonsua 
VIP


З нами з: 13.03.18
Востаннє: 10.04.21
Повідомлень: 357

2019-12-15 06:06  
jaroslove написано:
ото я сьогодні з дружиною потішусь перед сном!


А мультсеріал будете дивитись? Happy

Ваш часовий пояс: GMT + 2 Години

Нова тема   Відповісти