Вірус кохання / Get Over It (2001) AVC 2xUkr/Eng

Нові коментарі

Нова тема   Відповісти
Автор Повідомлення
Arsenfpu 
Відео Гуртом - фільмокрай
Відео Гуртом - фільмокрай


З нами з: 30.04.09
Востаннє: 05.08.20
Повідомлень: 7115

2017-09-14 15:49  
Вірус кохання / Get Over It (2001) AVC 2xUkr/Eng

Вірус кохання / Get Over It (2001) AVC 2xUkr/Eng


Жанр: комедія, мелодрама, музичний
Країна: США



Кінокомпанія: Miramax Internetional
Режисер: Томмі О’Хейвер
Актори: Кірстен Данст, Бен Фостер, Мелісса Сейджміллер, Сиско, Шейн Вест, Колін Хенкс, Зоі Салдана, Міла Куніс, Свузі Кертц

Сюжет:
Випускний рік складався для Берка Ландерса як не можна краще. Він зустрічався з красунею Елісон в яку був закоханий з пелюшок. Всі вважали їх ідеальною парою, і виявилося, що це - любов до гробу. Але в один прекрасний день Берк отримує відмову, і ось вже Елісон бачать в компанії найкрутішого хлопця - Страйкера, а її колишній перебуває в ступорі від відчаю. Всі спроби друзів привести Берка до тями провалюються одна за однією, до тих пір, поки за справу серйозно не береться Келлі, молодша сестра його кращого друга ...


Тривалість: 01:26:24
Якість: AVC
Відео:
кодек:
розмір кадру: 1 024 х 432
бітрейт: 2 499 кб/с

Аудіо # 1:
мова: українська
переклад: двоголосий закадровий
кодек: 2.0
бітрейт: 192 кб/с

Аудіо # 2:
мова: українська
переклад: двоголосий закадровий
кодек: 2.0
бітрейт: 192 кб/с

Аудіо # 3:
мова: англійська
переклад: оригінал
кодек: 2.0
бітрейт: 192 кб/с
Скріншоти














Про файл
General
Unique ID : 34866836661449801323854703864237368403 (0x1A3B1BC54B8C68B92976546406D1A453)
Complete name : C:\Get Over It (2001) [2xUkr,Eng] AVC [Hurtom].
Format :
Format version : Version 4 / Version 2
File size : 1.86 GiB
Duration : 1 h 26 min
Overall bit rate : 3 077 kb/s
Movie name : Вірус кохання / Get Over It (2001)
Encoded date : UTC 2020-06-20 13:24:04
Writing application : v21.0.0 ('Tardigrades Will Inherit The Earth') 32-bit
Writing library : libebml v1.3.5 + v1.4.8
Cover : Yes
Attachments : cover.jpg

Video
ID : 1
Format : AVC
Format/Info : Advanced Video Codec
Format profile : [email protected]
Format settings, CABAC : Yes
Format settings, ReFrames : 8 frames
Codec ID : V_MPEG4/ISO/AVC
Duration : 1 h 26 min
Bit rate : 2 499 kb/s
Width : 1 024 pixels
Height : 432 pixels
Display aspect ratio : 2.40:1
Frame rate mode : Constant
Frame rate : 23.976 (24000/1001) FPS
Color space : YUV
Chroma subsampling : 4:2:0
Bit depth : 8 bits
Scan type : Progressive
Bits/(Pixel*Frame) : 0.236
Stream size : 1.51 GiB (81%)
Writing library : core 157 r2969 d4099dd
Encoding settings : cabac=1 / ref=8 / deblock=1:-1:-1 / analyse=0x3:0x133 / me=umh / subme=10 / psy=1 / psy_rd=1.00:0.15 / mixed_ref=1 / me_range=32 / chroma_me=1 / trellis=2 / 8x8dct=1 / cqm=0 / deadzone=21,11 / fast_pskip=0 / chroma_qp_offset=-3 / threads=6 / lookahead_threads=1 / sliced_threads=0 / nr=0 / decimate=1 / interlaced=0 / bluray_compat=0 / constrained_intra=0 / bframes=6 / b_pyramid=2 / b_adapt=2 / b_bias=0 / direct=3 / weightb=1 / open_gop=0 / weightp=2 / keyint=240 / keyint_min=23 / scenecut=40 / intra_refresh=0 / rc_lookahead=60 / rc=2pass / mbtree=1 / bitrate=2499 / ratetol=1.0 / qcomp=0.60 / qpmin=0 / qpmax=69 / qpstep=4 / cplxblur=20.0 / qblur=0.5 / vbv_maxrate=31250 / vbv_bufsize=31250 / nal_hrd=none / filler=0 / ip_ratio=1.40 / aq=1:1.00
Default : Yes
Forced : No

Audio #1
ID : 2
Format : AC-3
Format/Info : Audio Coding 3
Mode extension : CM (complete main)
Format settings, Endianness : Big
Codec ID : A_AC3
Duration : 1 h 26 min
Bit rate mode : Constant
Bit rate : 192 kb/s
Channel(s) : 2 channels
Channel positions : Front: L R
Sampling rate : 48.0 kHz
Frame rate : 31.250 FPS (1536 spf)
Compression mode : Lossy
Stream size : 119 MiB (6%)
Title : Новий
Language : Ukrainian
Default : Yes
Forced : Yes

Audio #2
ID : 3
Format : AC-3
Format/Info : Audio Coding 3
Mode extension : CM (complete main)
Format settings, Endianness : Big
Codec ID : A_AC3
Duration : 1 h 26 min
Bit rate mode : Constant
Bit rate : 192 kb/s
Channel(s) : 2 channels
Channel positions : Front: L R
Sampling rate : 48.0 kHz
Frame rate : 31.250 FPS (1536 spf)
Compression mode : Lossy
Stream size : 119 MiB (6%)
Title : amc
Language : Ukrainian
Default : No
Forced : No

Audio #3
ID : 4
Format : AC-3
Format/Info : Audio Coding 3
Mode extension : CM (complete main)
Format settings, Endianness : Big
Codec ID : A_AC3
Duration : 1 h 26 min
Bit rate mode : Constant
Bit rate : 192 kb/s
Channel(s) : 2 channels
Channel positions : Front: L R
Sampling rate : 48.0 kHz
Frame rate : 31.250 FPS (1536 spf)
Compression mode : Lossy
Stream size : 119 MiB (6%)
Language : English
Default : No
Forced : No
Джерело:
За запис з Нового дякую пану xslim
Особиста оцінка: класний фільм


Срібний реліз (на рейтинг впливає 50% завантаженого)
 Трекер:    Зареєстрований   

Завантажити / скачати фільм українською



відео для новачків



 Зареєстрований:   2020-06-20 16:38
 Розмір:   1.86 GB 
 Оцінка фільму:   4.4/10 (Голосів: 20)
   
Інші релізи
   Вірус кохання / Get Over It (2001) 1080p Ukr/Eng | Sub Eng drop_plz  0 / 0   6.26 GB   2020-02-09 11:57 
Arsenfpu 
Відео Гуртом - фільмокрай
Відео Гуртом - фільмокрай


З нами з: 30.04.09
Востаннє: 05.08.20
Повідомлень: 7115

2020-06-20 16:39  
Реліз оновлено!
Змінено відео з на AVC та додано озвучення від amc.

Ваш часовий пояс: GMT + 2 Години

Нова тема   Відповісти