Нестримні. Трилогія / The Expendables. Trilogy (2010, 2012, 2014) AVC Ukr/Eng

Нові коментарі

Нова тема   Відповісти
Автор Повідомлення
Arsenfpu 
Відео Гуртом - фільмокрай
Відео Гуртом - фільмокрай


З нами з: 30.04.09
Востаннє: 25.09.17
Повідомлень: 2535

2017-09-13 19:49  
Нестримні. Трилогія / The Expendables. Trilogy (2010-2012-2014) AVC Ukr/Eng

Нестримні. Трилогія / The Expendables. Trilogy (2010, 2012, 2014) AVC Ukr/Eng


Жанр: екшн, пригодницький, триллер
Країна: США
Нестримні / The Expendables (2010) AVC 4xUkr/Eng

Нестримні / The Expendables (2010) AVC 4xUkr/Eng

Нестримні. Трилогія / The Expendables. Trilogy (2010, 2012, 2014) AVC Ukr/Eng



Кінокомпанія: Millennium Films, Nu Image Films, Rogue Marble
Режисер: Сільвестер Сталлоне
Актори: Сільвестер Сталлоне, Джейсон Стетхем, Джет Лі, Дольф Лундгрен, Міккі Рурк, Ерік Робертс, Стів Остін, Харізма Карпентер, Гарі Деніелс, Арнольд Шварценеггер, Брюс Віллі

Сюжет:
Нова стрічка Сільвестра Сталлоне чудово відповідає всій його фільмографії. Цього разу головними героями є команда найманих "мисливців за головами", які за гроші Сполучених Штатів вирушають до Латинської Америки, аби повалити режим кривавого диктатора, котрий відзначився масовими репресіями, вбивством американських заручників та ворожою зовнішньою політикою. Досить швидко командос розуміють, що в цих джунглях вони самі за себе - їх ніхто не підтримуватиме і не допомагатиме, для всього світу, який прагне зберегти таємницю замовлення, вони вже давно відпрацьований матеріал...


Тривалість: 01:43:27 - Театральна версія
Якість: [Open Matte]
Відео:
кодек:
розмір кадру: 1024 х 576
бітрейт: 2200 кб/с

Аудіо # 1:
мова: українська
переклад: багатоголосий закадровий
кодек: 2.0
бітрейт: 192 кб/с

Аудіо # 2:
мова: українська
переклад: багатоголосий закадровий
кодек: 2.0
бітрейт: 192 кб/с

Аудіо # 3:
мова: українська
переклад: професійний дубльований
кодек: 2.0
бітрейт: 224 кб/с

Аудіо # 4:
мова: українська
переклад: професійний дубльований Line
кодек: 2.0
бітрейт: 224 кб/с

Аудіо # 5:
мова: англійська
переклад: оригінал
кодек: 2.0
бітрейт: 192 кб/с
Скріншоти














Нестримні 2 / The Expendables 2 (2012) AVC 2xUkr/Eng

Нестримні 2 / The Expendables 2 (2012) AVC 2xUkr/Eng

Нестримні. Трилогія / The Expendables. Trilogy (2010, 2012, 2014) AVC Ukr/Eng



Кінокомпанія: Millennium Films, Nu Image Films
Режисер: Саймон Вест
Актори: Сільвестер Сталлоне, Джейсон Стетгем, Джет Лі, Дольф Лундґрен, Чак Норріс, Террі Крюс, Ренді Кутюр, Ліам Гемсворт, Жан-Клод Ван Дамм, Брюс Вілліс, Арнольд Шварценеґґер

Сюжет:
Містер Чарч доручає команді Нестримних виконати, здавалося б, просту роботу. На перший погляд, для Барні та його банди досвідчених найманців, це завдання виглядає лише як легкий спосіб підзаробити. Але щось пішло не так і одного з команди жорстоко вбивають. Тепер, щоб помститися, Нестримні вирушають на ворожу територію, де всі ставки зроблено проти них...


Тривалість: 01:42:41 - Театральна версія
Якість:
Відео:
кодек:
розмір кадру: 1032 х 430
бітрейт: 2143 кб/с

Аудіо # 1:
мова: українська
переклад: багатоголосий закадровий
кодек: 2.0
бітрейт: 192 кб/с

Аудіо # 2:
мова: українська
переклад: багатоголосий закадровий
кодек: 2.0
бітрейт: 192 кб/с

Аудіо # 3:
мова: англійська
переклад: оригінал
кодек: 2.0
бітрейт: 192 кб/с
Скріншоти














Нестримні 3 (Розширена версія) / The Expendables 3 (2014) (Unrated Cut) AVC Ukr/Eng

Нестримні 3 [Розширена версія] / The Expendables 3 (2014) [Unrated Cut] AVC Ukr/Eng

Нестримні. Трилогія / The Expendables. Trilogy (2010, 2012, 2014) AVC Ukr/Eng



Кінокомпанія: Lionsgate, Millennium Films, Nu Image Films
Режисер: Патрік Г'юз
Актори: Сільвестр Сталоне, Джейсон Стетгем, Мел Ґібсон, Гарісон Форд, Антоніо Бандерас, Веслі Снайпс, Дольф Лунґрен, Арнольд Шварценеґер, Ренді Кутюр, Тері Крюс, Келсі Ґремер

Сюжет:
Старий кінь борозни не зіпсує – професіоналізм завжди допомагав членам команди з легкістю виходити з будь-якої сутички та знешкоджувати найнебезпечніших злочинців. Цього разу голова загону Барні Росс стикається з ворогом, який виявився сильнішим, ніж це здавалося спочатку. Конрад Стоунбенкс вижив після спроби його вбити і тепер поставив собі за мету знищити групу найманців. Аби зміцнити свої позиції непереможних бійців, Росс вирішує підсилити команду та кличе на допомогу молоде покоління.


Тривалість: 02:11:31 [Розширена версія] - відмінності Театральної та Розширеної версій
Якість:
Відео:
кодек:
розмір кадру: 1152 х 480
бітрейт: 2304 кб/с

Аудіо # 1:
мова: українська
переклад: багатоголосий закадровий
кодек: 2.0
бітрейт: 192 кб/с

Аудіо # 2:
мова: англійська
переклад: оригінал
кодек: 2.0
бітрейт: 192 кб/с
Скріншоти














Джерело: &
За запис з Cine+ дякую пану Sando7
За інші доріжки дякую п. patriot2305, abodnya, Skiff, _oles, karvai0, Gelios, OlegCena
Особиста оцінка: це просто відпочинок та насолода



Бронзовий реліз (на рейтинг впливає 75% завантаженого)
 Трекер:    Зареєстрований   

Завантажити / скачати фільм українською



відео для новачків



 Зареєстрований:   2017-09-14 11:37
 Розмір:   6.75 GB 
 Оцінка фільму:   5/10 (Голосів: 18)
   
11FrYkT 
Модератор відео


З нами з: 20.02.11
Востаннє: 25.09.17
Повідомлень: 3900

2017-09-13 21:49  
Arsenfpu , варто було додати
https://toloka.to/t59370

Electroz 
Відео Гуртом - підтримка та поширення
Відео Гуртом - підтримка та поширення


З нами з: 18.09.14
Востаннє: 25.09.17
Повідомлень: 1600

2017-09-13 22:28  
11FrYkT
Там театральна, а тут розширена версія.

Arsenfpu 
Відео Гуртом - фільмокрай
Відео Гуртом - фільмокрай


З нами з: 30.04.09
Востаннє: 25.09.17
Повідомлень: 2535

2017-09-13 23:00  
11FrYkT
Я думав додати, але... засумнівався. Якось два відео одного фільму (хоч й іншої тривалості) дивно мати в одному релізі. Окрім того, інший реліз лишається доступним.

igor911 
Відео Гуртом
Відео Гуртом


З нами з: 18.01.08
Востаннє: 25.09.17
Повідомлень: 7733

2017-09-14 00:57  
Arsenfpu в Info написано:
Muxing mode : Header stripping

цей режим заборонений на Толоці, бо несумісний з більшістю "залізних" програвачів.

Правила оформлення відео-релізу написано:
3. У файлах . повинна бути вимкнена функція Header stripping (* як це зробити)
https://toloka.to/t31095
Раджу користуватись останніми версіями mkvtoolnix'а, в них цей режим вимкнено за замовчуванням.

Додано через 1 хвилину 39 секунд:
Info
Код:
General
Unique ID                   : 206051848803956117369848615947134576070 (0x9B04247F84EC4397BDD5685B29F425C6)
Complete name               : The Expendables 2 (2012) [2xUkr,Eng] AVC [Hurtom].
Format                      :
Format version              : Version 2
File size                   : 1.95 GiB
Duration                    : 1 h 42 min
Overall bit rate            : 2 718 kb/s
Encoded date                : UTC 2017-09-13 13:42:50
Writing application         : mkvmerge v5.4.0 ('Piper') built on Mar 10 2012 13:34:39
Writing library             : libebml v1.2.3 + libmatroska v1.3.0

Video
ID                          : 1
Format                      : AVC
Format/Info                 : Advanced Video Codec
Format profile              : [email protected]
Format settings, CABAC      : Yes
Format settings, RefFrames  : 10 frames
Muxing mode                 : Header stripping
Codec ID                    : V_MPEG4/ISO/AVC
Duration                    : 1 h 42 min
Bit rate                    : 2 143 kb/s
Width                       : 1 032 pixels
Height                      : 430 pixels
Display aspect ratio        : 2.40:1
Frame rate mode             : Constant
Frame rate                  : 23.976 FPS
Color space                 : YUV
Chroma subsampling          : 4:2:0
Bit depth                   : 8 bits
Scan type                   : Progressive
Bits/(Pixel*Frame)          : 0.201
Stream size                 : 1.50 GiB (77%)
Title                       : potroks
Writing library             : core 130 r2273 b3065e6
Encoding settings           : cabac=1 / ref=10 / deblock=1:-3:-3 / analyse=0x3:0x133 / me=umh / subme=11 / psy=1 / psy_rd=0.95:0.00 / mixed_ref=1 / me_range=48 / chroma_me=1 / trellis=2 / 8x8dct=1 / cqm=0 / deadzone=21,11 / fast_pskip=0 / chroma_qp_offset=-2 / threads=9 / lookahead_threads=6 / sliced_threads=0 / nr=0 / decimate=0 / interlaced=0 / bluray_compat=0 / constrained_intra=0 / bframes=11 / b_pyramid=2 / b_adapt=2 / b_bias=0 / direct=3 / weightb=1 / open_gop=0 / weightp=2 / keyint=250 / keyint_min=23 / scenecut=40 / intra_refresh=0 / rc_lookahead=60 / rc=2pass / mbtree=0 / bitrate=2143 / ratetol=1.0 / qcomp=0.72 / qpmin=0 / qpmax=69 / qpstep=4 / cplxblur=20.0 / qblur=0.5 / vbv_maxrate=50000 / vbv_bufsize=62500 / nal_hrd=none / ip_ratio=1.35 / pb_ratio=1.25 / aq=1:1.00
Language                    : English
Default                     : Yes
Forced                      : No

Audio #1
ID                          : 2
Format                      : AC-3
Format/Info                 : Audio Coding 3
Format settings, Endianness : Big
Muxing mode                 : Header stripping
Codec ID                    : A_AC3
Duration                    : 1 h 42 min
Bit rate mode               : Constant
Bit rate                    : 192 kb/s
Channel(s)                  : 2 channels
Channel positions           : Front: L R
Sampling rate               : 48.0 kHz
Frame rate                  : 31.250 FPS (1536 SPF)
Bit depth                   : 16 bits
Compression mode            : Lossy
Stream size                 : 141 MiB (7%)
Service kind                : Complete Main
Default                     : Yes
Forced                      : No

Audio #2
ID                          : 3
Format                      : AC-3
Format/Info                 : Audio Coding 3
Format settings, Endianness : Big
Muxing mode                 : Header stripping
Codec ID                    : A_AC3
Duration                    : 1 h 42 min
Bit rate mode               : Constant
Bit rate                    : 192 kb/s
Channel(s)                  : 2 channels
Channel positions           : Front: L R
Sampling rate               : 48.0 kHz
Frame rate                  : 31.250 FPS (1536 SPF)
Bit depth                   : 16 bits
Compression mode            : Lossy
Stream size                 : 141 MiB (7%)
Service kind                : Complete Main
Default                     : No
Forced                      : No

Audio #3
ID                          : 4
Format                      : AC-3
Format/Info                 : Audio Coding 3
Format settings, Endianness : Big
Muxing mode                 : Header stripping
Codec ID                    : A_AC3
Duration                    : 1 h 42 min
Bit rate mode               : Constant
Bit rate                    : 192 kb/s
Channel(s)                  : 2 channels
Channel positions           : Front: L R
Sampling rate               : 48.0 kHz
Frame rate                  : 31.250 FPS (1536 SPF)
Bit depth                   : 16 bits
Compression mode            : Lossy
Stream size                 : 141 MiB (7%)
Service kind                : Complete Main
Default                     : No
Forced                      : No

11FrYkT 
Модератор відео


З нами з: 20.02.11
Востаннє: 25.09.17
Повідомлень: 3900

2017-09-14 06:57  
Arsenfpu , не звернув уваги на версії відео, а от
Цитата:
Muxing mode : Header stripping

варто перемуксувати з вимкненням цієї функці

Arsenfpu 
Відео Гуртом - фільмокрай
Відео Гуртом - фільмокрай


З нами з: 30.04.09
Востаннє: 25.09.17
Повідомлень: 2535

2017-09-14 09:27  
Якщо я це зроблю трохи пізніше, коли лишиться мало людей на роздачі?
11FrYkT 
Модератор відео


З нами з: 20.02.11
Востаннє: 25.09.17
Повідомлень: 3900

2017-09-14 10:16  
Arsenfpu , не варто бо ті хто зараз вантажитимуть то не зможуть подивитися на залізних плеєрах
Arsenfpu 
Відео Гуртом - фільмокрай
Відео Гуртом - фільмокрай


З нами з: 30.04.09
Востаннє: 25.09.17
Повідомлень: 2535

2017-09-14 11:39  
Реліз оновлено: внесено зміни у технічні параметри файлів.
Прошу вибачення за мої "гави" при створенні релізу.

igor911 
Відео Гуртом
Відео Гуртом


З нами з: 18.01.08
Востаннє: 25.09.17
Повідомлень: 7733

2017-09-14 11:41  
Arsenfpu, додай, будь ласка (можна тут або в приват) медіаінфо будь-якого з файлів цього релізу.
Arsenfpu 
Відео Гуртом - фільмокрай
Відео Гуртом - фільмокрай


З нами з: 30.04.09
Востаннє: 25.09.17
Повідомлень: 2535

2017-09-14 11:46  
igor911

General
Unique ID : 237036333469846555086729633197519524301 (0xB253898975EF68CA9C89FBA738F3D1CD)
Complete name : F:\Film_6\The Expendables.Trilogy (2010-2012-2014) [4xUkr,Eng] AVC [Hurtom]\The Expendables (2010) [4xUkr,Eng] AVC [Hurtom].
Format :
Format version : Version 2
File size : 2.33 GiB
Duration : 1 h 43 min
Overall bit rate : 3 226 kb/s
Encoded date : UTC 2017-09-14 08:10:37
Writing application : mkvmerge v5.4.0 ('Piper') built on Mar 10 2012 13:34:39
Writing library : libebml v1.2.3 + libmatroska v1.3.0
Attachments : The Expendables.jpg

Video
ID : 1
Format : AVC
Format/Info : Advanced Video Codec
Format profile : [email protected]
Format settings, CABAC : Yes
Format settings, ReFrames : 8 frames
Codec ID : V_MPEG4/ISO/AVC
Duration : 1 h 43 min
Bit rate : 2 200 kb/s
Width : 1 024 pixels
Height : 576 pixels
Display aspect ratio : 16:9
Frame rate mode : Constant
Frame rate : 23.976 (24000/1001) FPS
Color space : YUV
Chroma subsampling : 4:2:0
Bit depth : 8 bits
Scan type : Progressive
Bits/(Pixel*Frame) : 0.156
Stream size : 1.55 GiB (66%)
Title : (AVC) / MPEG-4 AVC/ / 2200 kbps / 1024x576 / 23.976 fps
Writing library : core 146 r2538 121396c
Encoding settings : cabac=1 / ref=8 / deblock=1:0:0 / analyse=0x3:0x113 / me=umh / subme=10 / psy=1 / psy_rd=1.00:0.00 / mixed_ref=1 / me_range=32 / chroma_me=1 / trellis=2 / 8x8dct=1 / cqm=0 / deadzone=21,11 / fast_pskip=0 / chroma_qp_offset=-2 / threads=6 / lookahead_threads=1 / sliced_threads=0 / nr=0 / decimate=1 / interlaced=0 / bluray_compat=0 / constrained_intra=0 / bframes=9 / b_pyramid=2 / b_adapt=2 / b_bias=0 / direct=3 / weightb=1 / open_gop=0 / weightp=2 / keyint=250 / keyint_min=23 / scenecut=40 / intra_refresh=0 / rc_lookahead=50 / rc=2pass / mbtree=1 / bitrate=2200 / ratetol=1.0 / qcomp=0.60 / qpmin=0 / qpmax=69 / qpstep=4 / cplxblur=20.0 / qblur=0.5 / vbv_maxrate=14000 / vbv_bufsize=14000 / nal_hrd=none / filler=0 / ip_ratio=1.40 / aq=1:1.00
Language : English
Default : Yes
Forced : Yes

Audio #1
ID : 2
Format : AC-3
Format/Info : Audio Coding 3
Mode extension : CM (complete main)
Format settings, Endianness : Big
Codec ID : A_AC3
Duration : 1 h 43 min
Bit rate mode : Constant
Bit rate : 192 kb/s
Channel(s) : 2 channels
Channel positions : Front: L R
Sampling rate : 48.0 kHz
Frame rate : 31.250 FPS (1536 spf)
Compression mode : Lossy
Stream size : 142 MiB (6%)
Language : Ukrainian
Default : Yes
Forced : No

Audio #2
ID : 3
Format : AC-3
Format/Info : Audio Coding 3
Mode extension : CM (complete main)
Format settings, Endianness : Big
Codec ID : A_AC3
Duration : 1 h 43 min
Bit rate mode : Constant
Bit rate : 192 kb/s
Channel(s) : 2 channels
Channel positions : Front: L R
Sampling rate : 48.0 kHz
Frame rate : 31.250 FPS (1536 spf)
Compression mode : Lossy
Stream size : 142 MiB (6%)
Language : Ukrainian
Default : No
Forced : No

Audio #3
ID : 4
Format : AC-3
Format/Info : Audio Coding 3
Mode extension : CM (complete main)
Format settings, Endianness : Big
Codec ID : A_AC3
Duration : 1 h 43 min
Bit rate mode : Constant
Bit rate : 224 kb/s
Channel(s) : 2 channels
Channel positions : Front: L R
Sampling rate : 48.0 kHz
Frame rate : 31.250 FPS (1536 spf)
Compression mode : Lossy
Stream size : 166 MiB (7%)
Language : Ukrainian
Default : No
Forced : No

Audio #4
ID : 5
Format : AC-3
Format/Info : Audio Coding 3
Mode extension : CM (complete main)
Format settings, Endianness : Big
Codec ID : A_AC3
Duration : 1 h 43 min
Bit rate mode : Constant
Bit rate : 224 kb/s
Channel(s) : 2 channels
Channel positions : Front: L R
Sampling rate : 48.0 kHz
Frame rate : 31.250 FPS (1536 spf)
Compression mode : Lossy
Stream size : 166 MiB (7%)
Language : Ukrainian
Default : No
Forced : No

Audio #5
ID : 6
Format : AC-3
Format/Info : Audio Coding 3
Mode extension : CM (complete main)
Format settings, Endianness : Big
Codec ID : A_AC3
Duration : 1 h 43 min
Bit rate mode : Constant
Bit rate : 192 kb/s
Channel(s) : 2 channels
Channel positions : Front: L R
Sampling rate : 48.0 kHz
Frame rate : 31.250 FPS (1536 spf)
Compression mode : Lossy
Stream size : 142 MiB (6%)
Language : English
Default : No
Forced : No

Xshot 
VIP


З нами з: 22.09.09
Востаннє: 24.09.17
Повідомлень: 1603

2017-09-15 10:51  
igor911 написано:

Arsenfpu в Info написано:
Muxing mode : Header stripping

цей режим заборонений на Толоці, бо несумісний з більшістю "залізних" програвачів.

Правила оформлення відео-релізу написано:
3. У файлах . повинна бути вимкнена функція Header stripping (* як це зробити)
https://toloka.to/t31095
Раджу користуватись останніми версіями mkvtoolnix'а, в них цей режим вимкнено за замовчуванням.

Приємно вражений, що до релізів така увага, (навіть реліз було оновлено). Тому що, наприклад, avi-релізи з параметрами (OPENDML, QPEL, QMC), що несумісні з більшістю "залізних" програвачів завжди ігнорувалися

Додано через 2 хвилини 8 секунд:

P.S. Дубляж не додали, а ті що є - не першою доріжкою(

Arsenfpu 
Відео Гуртом - фільмокрай
Відео Гуртом - фільмокрай


З нами з: 30.04.09
Востаннє: 25.09.17
Повідомлень: 2535

2017-09-15 10:57  
Xshot написано:
P.S. Дубляж не додали, а ті що є - не першою доріжкою(

Перше йде те, де краща якість.
Дубляж до третьої не додано, бо тут інша версія відео.

igor911 
Відео Гуртом
Відео Гуртом


З нами з: 18.01.08
Востаннє: 25.09.17
Повідомлень: 7733

2017-09-15 10:58  
Xshot, цей випадок - чиста випадковість, оскільки в правилах нічого немає про звіт медіаінфо в sd релізах. Просто я звернув увагу, оскільки мені знадобилась доріжка звідси.
Ваш часовий пояс: GMT + 2 Години

Нова тема   Відповісти