Тілоохоронець кілера / The Hitman's Bodyguard (2017) 720p Ukr/Eng | Sub Eng

Нові коментарі

Нова тема   Відповісти
Автор Повідомлення
Anonymous 







2017-09-13 14:49  
Тілоохоронець кілера / The Hitman's Bodyguard (2017) 720p Ukr/Eng | Sub Eng

Тілоохоронець кілера / The Hitman's Bodyguard (2017) 720p Ukr/Eng | Sub Eng
Альтернативний постер


Жанр: бойовик, комедія
Країна: США, Китай, Болгарія, Нідерланди



Кінокомпанія: Lionsgate, Bodyguard Productions, Campbell Grobman Films, Cristal Pictures, East Light Media, Millennium Films, Nu Boyana Film Studios, Skydance Media, Tom de Mol Productions

Режисер: Патрік Г'юс / Patrick Hughes
Актори: Раян Рейнольдс / Ryan Reynolds, Семюель Л. Джексон / Samuel L. Jackson, Сальма Хайєк / Salma Hayek, Елоді Юнґ / Elodie Yung, Ґері Олдмен / Gary Oldman, Хоакім Де Альмейда / Joaquim de Almeida, Річард Е. Ґрант / Richard E. Grant, Сем Хезелдайн / Sam Hazeldine, Род Халлетт / Rod Hallett, Юрій Калакольнікав та інші

Сюжет:
Один з найкращих кілерів у світі Даріус Кінкейд вирішує здати свого колишнього наймача. Тепер його хоче вбити ледь не кожна людина у злочинному світі. Його друзі наймають одного з найкращих охоронців Майкла Брайса. Відносини двох чоловіків завжди були дуже поганими, адже вони вороги один одному. Тепер Майкл повинен забути про всі протиріччя й зосередитися на виконанні своєї роботи. А їх чекає багато небезпек, перестрілки на кожному кроці, погоні на високих швидкостях. Двоє абсолютно різних чоловіків з різними методами роботи будуть робити все, щоб вижити в цьому чортовому світі.
Офіційний український трейлер:


Рейтинг MPAA: R - особам до 17 років обов'язкова присутність батьків або дорослого опікуна
Вікова категорія: 16+
Тривалість: 01:58:11
Якість: 720p
Відео:
кодек:
розмір кадру: 1280 х 536
бітрейт: 6000 кб/с

Аудіо #1:
мова: українська
переклад: професійний дубльований | ААА-sound
кодек: 2.0 [стерео]
бітрейт: 192 кб/с
Інформація про дубляж
Переклад: Юлія Когут
Режисер: Олександр Єфімов
Ролі дублювали: Дмитро Гаврилов, Кирило Нікітенко, Олена Узлюк, Юлія Перенчук, Дмитро Завадський, Анатолій Зіновенко, Ярослав Чорненький, Ольга Радчук, Дмитро Сова, Михайло Кришталь, Іван Розін та інші.
Фільм дубльовано студією AAA-Sound у 2017 році на замовлення компанії Кіноманія.
Аудіо #2:
мова: англійська
переклад: оригінал
кодек: 5.1
бітрейт: 640 кб/с

Субтитри:
мова: англійська
тип: програмні (м'які)
формат: *.srt
Info та log
Код:
Complete name               : The Hitman's Bodyguard (2017) [Ukr,Eng sub.Eng] 720p [Hurtom].
Format                      :
Format version              : Version 4 / Version 2
File size                   : 5.64 GiB
Duration                    : 1 h 58 min
Overall bit rate            : 6 826 kb/s
Movie name                  : Тілоохоронець кілера / The Hitman's Bodyguard (2017) [Ukr,Eng sub.Eng] 720p [Hurtom]
Released date               : 2017
Writing application         : mkvmerge v17.0.0 ('Be Ur Friend') 64-bit
Writing library             : libebml v1.3.5 + libmatroska v1.4.8
Cover                       : Yes
Comment                     : http://www.imdb.com/title/tt1959563/
Attachments                 : cover.jpg
ARTIST                      : Раян Рейнольдс / Ryan Reynolds, Семюель Л. Джексон / Samuel L. Jackson, Сальма Хайєк / Salma Hayek, Елоді Юнґ / Elodie Yung, Ґері Олдмен / Gary Oldman, Хоакім Де Альмейда / Joaquim de Almeida, Річард Е. Ґрант / Richard E. Grant, Сем Хезелдайн / Sam Hazeldine, Род Халлетт / Rod Hallett, Юрій Калакольнікав та інші
DIRECTOR                    : Патрік Г'юс / Patrick Hughes
GENRE                       : бойовик, комедія
SYNOPSIS                    : Один з найкращих кілерів у світі Даріус Кінкейд вирішує здати свого колишнього наймача. Тепер його хоче вбити ледь не кожна людина у злочинному світі. Його друзі наймають одного з найкращих охоронців Майкла Брайса. Відносини двох чоловіків завжди були дуже поганими, адже вони вороги один одному. Тепер Майкл повинен забути про всі протиріччя й зосередитися на виконанні своєї роботи. А їх чекає багато небезпек, перестрілки на кожному кроці, погоні на високих швидкостях. Двоє абсолютно різних чоловіків з різними методами роботи будуть робити все, щоб вижити в цьому чортовому світі...
Url                         : https://toloka.to/t84074

Video
ID                          : 1
Format                      : AVC
Format/Info                 : Advanced Video Codec
Format profile              : High@L4.1
Format settings             : CABAC / 12 Ref Frames
Format settings, CABAC      : Yes
Format settings, RefFrames  : 12 frames
Codec ID                    : V_MPEG4/ISO/AVC
Duration                    : 1 h 58 min
Bit rate                    : 6 000 kb/s
Width                       : 1 280 pixels
Height                      : 536 pixels
Display aspect ratio        : 2.40:1
Frame rate mode             : Constant
Frame rate                  : 23.976 (24000/1001) FPS
Color space                 : YUV
Chroma subsampling          : 4:2:0
Bit depth                   : 8 bits
Scan type                   : Progressive
Bits/(Pixel*Frame)          : 0.365
Stream size                 : 4.95 GiB (88%)
Title                       : Тілоохоронець кілера / The Hitman's Bodyguard (2017) 720p [HDChina - Medusa]
Writing library             : core 148 r2665kMod a01e339
Encoding settings           : cabac=1 / ref=12 / deblock=1:-3:-3 / analyse=0x3:0x133 / me=umh / subme=11 / psy=1 / fade_compensate=0.00 / psy_rd=1.05:0.00 / mixed_ref=1 / me_range=32 / chroma_me=1 / trellis=2 / 8x8dct=1 / cqm=0 / deadzone=21,11 / fast_pskip=0 / chroma_qp_offset=-2 / threads=17 / lookahead_threads=2 / sliced_threads=0 / nr=0 / decimate=0 / interlaced=0 / bluray_compat=0 / constrained_intra=0 / fgo=0 / bframes=8 / b_pyramid=2 / b_adapt=2 / b_bias=0 / direct=3 / weightb=1 / open_gop=0 / weightp=2 / keyint=240 / keyint_min=24 / scenecut=40 / intra_refresh=0 / rc=2pass / mbtree=0 / bitrate=6000 / ratetol=1.0 / qcomp=0.70 / qpmin=0 / qpmax=69 / qpstep=4 / cplxblur=20.0 / qblur=0.5 / ip_ratio=1.20 / pb_ratio=1.20 / aq=3:0.85
Language                    : English
Default                     : Yes
Forced                      : No

Audio #1
ID                          : 2
Format                      : AC-3
Format/Info                 : Audio Coding 3
Format settings, Endianness : Big
Codec ID                    : A_AC3
Duration                    : 1 h 58 min
Bit rate mode               : Constant
Bit rate                    : 192 kb/s
Channel(s)                  : 2 channels
Channel positions           : Front: L R
Sampling rate               : 48.0 kHz
Frame rate                  : 31.250 FPS (1536 SPF)
Bit depth                   : 16 bits
Compression mode            : Lossy
Stream size                 : 162 MiB (3%)
Title                       : Dub [AAA-sound, Megogo] 2.0 [stereo] 192 Kbps [uafilm.tv, Hurtom - Electroz]
Language                    : Ukrainian
Service kind                : Complete Main
Default                     : Yes
Forced                      : Yes

Audio #2
ID                          : 3
Format                      : AC-3
Format/Info                 : Audio Coding 3
Format settings, Endianness : Big
Codec ID                    : A_AC3
Duration                    : 1 h 58 min
Bit rate mode               : Constant
Bit rate                    : 640 kb/s
Channel(s)                  : 6 channels
Channel positions           : Front: L C R, Side: L R, LFE
Sampling rate               : 48.0 kHz
Frame rate                  : 31.250 FPS (1536 SPF)
Bit depth                   : 16 bits
Compression mode            : Lossy
Stream size                 : 541 MiB (9%)
Title                       : Original, 5.1 640 Kbps
Language                    : English
Service kind                : Complete Main
Default                     : No
Forced                      : No

Text
ID                          : 4
Format                      : UTF-8
Codec ID                    : S_TEXT/UTF8
Codec ID/Info               : UTF-8 Plain Text
Duration                    : 1 h 56 min
Bit rate                    : 59 b/s
Count of elements           : 1486
Stream size                 : 51.0 KiB (0%)
Title                       : Eng Full
Language                    : English
Default                     : No
Forced                      : No

Menu
00:00:00.000                : en:00:00:00.000
00:07:22.942                : en:00:07:22.942
00:13:53.875                : en:00:13:53.875
00:20:23.305                : en:00:20:23.305
00:27:20.138                : en:00:27:20.138
00:32:53.513                : en:00:32:53.513
00:38:25.428                : en:00:38:25.428
00:46:52.977                : en:00:46:52.977
00:56:39.354                : en:00:56:39.354
01:00:23.370                : en:01:00:23.370
01:09:11.397                : en:01:09:11.397
01:16:34.381                : en:01:16:34.381
01:21:11.241                : en:01:21:11.241
01:27:45.093                : en:01:27:45.093
01:35:06.743                : en:01:35:06.743
01:40:37.740                : en:01:40:37.740

Код:
[info]: frame I:1513  Avg QP:14.08  size:116891
[info]: frame P:44864 Avg QP:16.07  size: 50338
[info]: frame B:123783 Avg QP:16.39  size: 23270
[info]: consecutive B-frames:  5.8%  6.4%  9.9% 22.9% 14.9% 28.7%  5.9%  3.8%  1.8%


Джерело: &
Придбання доріжки - troubless, синхронізація - Electroz


Золотий реліз (завантажене не впливає на рейтинг)
 Трекер:    Зареєстрований   

Завантажити / скачати фільм українською



відео для новачків



 Зареєстрований:   2017-11-12 23:35
 Розмір:   5.64 GB 
 Оцінка фільму:   8.4/10 (Голосів: 119)
   
Lil`Antoni 
VIP


З нами з: 25.02.12
Востаннє: 15.11.17
Повідомлень: 415

2017-09-13 15:18  
Сподобався трейлер, чекаю на даний фільм. Дякую за реліз
249 
Новенький


З нами з: 14.03.12
Востаннє: 30.09.17
Повідомлень: 15

2017-09-13 21:48  
Класний фільм! Варта подивитись!
ne4ubo 
Новенький


З нами з: 04.11.14
Востаннє: 17.11.17
Повідомлень: 2

2017-09-16 21:42  
і тут президент Боснії Rolleyes (2)
KeryaS 
Частий відвідувач


З нами з: 01.09.14
Востаннє: 17.11.17
Повідомлень: 31

2017-09-17 07:10  
Один раз глянути можна, якщо не вдумуватися в те що відбувається на екрані Happy
bissrib 
Свій


З нами з: 04.06.12
Востаннє: 17.11.17
Повідомлень: 52

2017-09-19 19:45  
Джексон гіперофігенний!
Втім, як і завжди.

TimkovDima 
Новенький


З нами з: 24.12.14
Востаннє: 12.11.17
Повідомлень: 1

2017-09-23 22:08  
не дуже люблю писати коментарі, особливо, коли вони не стосуються фільму, але я радий, що є толока де я можу подивитись фільми українською, після закриття фс.ту і екс.юа лише тут можу відпочити
Marian_Melnyk 
Новенький


З нами з: 14.09.14
Востаннє: 17.11.17
Повідомлень: 3

2017-09-25 22:43  
TimkovDima цілком і повністю підтримую=)
nolikest 
Частий відвідувач


З нами з: 18.06.14
Востаннє: 16.11.17
Повідомлень: 33

2017-09-28 08:29  
Не сподобався цей фільм. Думав, що буде кращий. Графіка на середньому рівні.
Novosvit 
Частий відвідувач


З нами з: 26.11.08
Востаннє: 16.11.17
Повідомлень: 37

2017-09-28 14:43  
Ну таке, на 5 з 10.
Слабуватий сюжет і сценарій, хоча актори грають добре.

igordejak 
Новенький


З нами з: 24.05.10
Востаннє: 15.11.17
Повідомлень: 9

2017-09-28 16:40  
із українськими титрами реліз не планується?
eevviill 
Частий відвідувач


З нами з: 13.08.08
Востаннє: 13.11.17
Повідомлень: 30

2017-09-30 21:18  
Гииии.
Це ж треба було Боснію з Білорусією переплутати.

V.i.R.u.S 
Новенький


З нами з: 19.11.10
Востаннє: 16.11.17
Повідомлень: 16

2017-10-15 13:05  
Фільм вартий уваги, давно не бачив такого якісного бойовика.
Inf3rnal 
Новенький


З нами з: 14.06.14
Востаннє: 17.11.17
Повідомлень: 6

2017-11-05 00:21  
Цікавий фільм, веселий) Хороший і якісний переклад, веселий, актори гарно зіграли. 9 з 10
Mrakobes0001 
Новенький


З нами з: 25.11.16
Востаннє: 14.11.17
Повідомлень: 6

2017-11-11 22:29  
ne4ubo написано:
і тут президент Боснії

А навіщо перекладати з оригіналу, якщо можна вкрасти російський переклад і бездумно прочитати Українською?

Anonymous 







2017-11-12 23:40  
Оновлено відеоряд до 'а та звук до стерео.
Ivan_Ivanovych 
Новенький


З нами з: 01.12.08
Востаннє: 15.11.17
Повідомлень: 8

2017-11-13 21:02  
Поставив 1 бал, бо переклад спотворений під вату. Ватники переклали диктатора Білорусі як диктатора Боснії, що є НЕПРАВДОЮ.
Mrakobes0001 
Новенький


З нами з: 25.11.16
Востаннє: 14.11.17
Повідомлень: 6

2017-11-14 01:24  
Як то кажуть - "Третій сорт - ще не брак"
Місцями цікаво, місцями просто гарно, місцями смішно - на один раз подивитись згодиться, але якщо нема чогось цікавішого - оцінка - слабенька 4

DeWitt_1912 
Новенький


З нами з: 13.09.16
Востаннє: 16.11.17
Повідомлень: 21

2017-11-15 17:48  
Дуже багато смерті на екрані. Безглуздої, беззмістовної смерті, з якої намагалися зліпити комедію.
mrsdoubtfire 
Поважний учасник


З нами з: 22.10.15
Востаннє: 16.11.17
Повідомлень: 155

2017-11-15 18:19  
Дедпул краще.
Ваш часовий пояс: GMT + 2 Години

Нова тема   Відповісти