Тілоохоронець кілера / The Hitman's Bodyguard (2017) 720p Ukr/Eng | Sub Eng

Нові коментарі

Нова тема   Відповісти
Автор Повідомлення
Anonymous 







2017-09-13 15:49  
Тілоохоронець кілера / The Hitman's Bodyguard (2017) 720p Ukr/Eng | Sub Eng

Тілоохоронець кілера / The Hitman's Bodyguard (2017) 720p Ukr/Eng | Sub Eng
Альтернативний постер


Жанр: бойовик, комедія
Країна: США, Китай, Болгарія, Нідерланди



Кінокомпанія: Lionsgate, Bodyguard Productions, Campbell Grobman Films, Cristal Pictures, East Light Media, Millennium Films, Nu Boyana Film Studios, Skydance Media, Tom de Mol Productions

Режисер: Патрік Г'юс / Patrick Hughes
Актори: Раян Рейнольдс / Ryan Reynolds, Семюель Л. Джексон / Samuel L. Jackson, Сальма Хайєк / Salma Hayek, Елоді Юнґ / Elodie Yung, Ґері Олдмен / Gary Oldman, Хоакім Де Альмейда / Joaquim de Almeida, Річард Е. Ґрант / Richard E. Grant, Сем Хезелдайн / Sam Hazeldine, Род Халлетт / Rod Hallett, Юрій Калакольнікав та інші

Сюжет:
Один з найкращих кілерів у світі Даріус Кінкейд вирішує здати свого колишнього наймача. Тепер його хоче вбити ледь не кожна людина у злочинному світі. Його друзі наймають одного з найкращих охоронців Майкла Брайса. Відносини двох чоловіків завжди були дуже поганими, адже вони вороги один одному. Тепер Майкл повинен забути про всі протиріччя й зосередитися на виконанні своєї роботи. А їх чекає багато небезпек, перестрілки на кожному кроці, погоні на високих швидкостях. Двоє абсолютно різних чоловіків з різними методами роботи будуть робити все, щоб вижити в цьому чортовому світі.
Офіційний український трейлер:


Рейтинг MPAA: R - особам до 17 років обов'язкова присутність батьків або дорослого опікуна
Вікова категорія: 16+
Тривалість: 01:58:11
Якість: 720p
Відео:
кодек:
розмір кадру: 1280 х 536
бітрейт: 4500 кб/с

Аудіо #1:
мова: українська
переклад: професійний дубльований | ААА-sound
кодек: 2.0
бітрейт: 192 кб/с
Інформація про дубляж
Переклад: Юлія Когут
Режисер: Олександр Єфімов
Ролі дублювали: Дмитро Гаврилов, Кирило Нікітенко, Олена Узлюк, Юлія Перенчук, Дмитро Завадський, Анатолій Зіновенко, Ярослав Чорненький, Ольга Радчук, Дмитро Сова, Михайло Кришталь, Іван Розін та інші.
Фільм дубльовано студією AAA-Sound у 2017 році на замовлення компанії Кіноманія.
Аудіо #2:
мова: англійська
переклад: оригінал
кодек: 5.1
бітрейт: 384 кб/с

Субтитри # 1-2:
мова: англійська (форсовані, повні)
тип: програмні (м'які)
формат: *.srt
Info
Код:
Complete name               : The Hitman's Bodyguard (2017) [Ukr,Eng sub.Eng] 720p [Hurtom].
Format                      :
Format version              : Version 4 / Version 2
File size                   : 4.19 GiB
Duration                    : 1 h 58 min
Overall bit rate            : 5 075 kb/s
Cover                       : Yes
Attachments                 : cover.jpg

Video
ID                          : 1
Format                      : AVC
Format/Info                 : Advanced Video Codec
Format profile              : [email protected]
Format settings, CABAC      : Yes
Format settings, RefFrames  : 12 frames
Codec ID                    : V_MPEG4/ISO/AVC
Duration                    : 1 h 58 min
Bit rate                    : 4 500 kb/s
Width                       : 1 280 pixels
Height                      : 536 pixels
Display aspect ratio        : 2.40:1
Frame rate mode             : Constant
Frame rate                  : 23.976 (24000/1001) FPS
Color space                 : YUV
Chroma subsampling          : 4:2:0
Bit depth                   : 8 bits
Scan type                   : Progressive
Bits/(Pixel*Frame)          : 0.274
Stream size                 : 3.71 GiB (89%)
Title                       : Тілоохоронець кілера / The Hitman's Bodyguard (2017) 720p
Writing library             : core 148 r2744 b97ae06
Encoding settings           : cabac=1 / ref=12 / deblock=1:-1:-1 / analyse=0x3:0x133 / me=umh / subme=11 / psy=1 / psy_rd=1.00:0.15 / mixed_ref=1 / me_range=32 / chroma_me=1 / trellis=2 / 8x8dct=1 / cqm=0 / deadzone=21,11 / fast_pskip=0 / chroma_qp_offset=-3 / threads=12 / lookahead_threads=2 / sliced_threads=0 / nr=0 / decimate=1 / interlaced=0 / bluray_compat=0 / constrained_intra=0 / bframes=8 / b_pyramid=2 / b_adapt=2 / b_bias=0 / direct=3 / weightb=1 / open_gop=0 / weightp=2 / keyint=240 / keyint_min=23 / scenecut=40 / intra_refresh=0 / rc_lookahead=60 / rc=2pass / mbtree=1 / bitrate=4500 / ratetol=1.0 / qcomp=0.60 / qpmin=0 / qpmax=69 / qpstep=4 / cplxblur=20.0 / qblur=0.5 / vbv_maxrate=11200 / vbv_bufsize=15000 / nal_hrd=none / filler=0 / ip_ratio=1.40 / aq=1:1.00
Language                    : English
Default                     : Yes
Forced                      : No

Audio #1
ID                          : 2
Format                      : AC-3
Format/Info                 : Audio Coding 3
Format settings, Endianness : Big
Codec ID                    : A_AC3
Duration                    : 1 h 58 min
Bit rate mode               : Constant
Bit rate                    : 192 kb/s
Channel(s)                  : 2 channels
Channel positions           : Front: L R
Sampling rate               : 48.0 kHz
Frame rate                  : 31.250 FPS (1536 SPF)
Bit depth                   : 16 bits
Compression mode            : Lossy
Stream size                 : 162 MiB (4%)
Title                       : Dub [AAA-sound, Line] 2.0 192 Kbps [Hurtom-Covenant]
Language                    : Ukrainian
Service kind                : Complete Main
Default                     : Yes
Forced                      : Yes

Audio #2
ID                          : 3
Format                      : AC-3
Format/Info                 : Audio Coding 3
Format settings, Endianness : Big
Codec ID                    : A_AC3
Duration                    : 1 h 58 min
Bit rate mode               : Constant
Bit rate                    : 384 kb/s
Channel(s)                  : 6 channels
Channel positions           : Front: L C R, Side: L R, LFE
Sampling rate               : 48.0 kHz
Frame rate                  : 31.250 FPS (1536 SPF)
Bit depth                   : 16 bits
Compression mode            : Lossy
Delay relative to video     : 22 ms
Stream size                 : 325 MiB (8%)
Title                       : Original, 5.1 384 Kbps
Language                    : English
Service kind                : Complete Main
Default                     : No
Forced                      : No

Text #1
ID                          : 4
Format                      : UTF-8
Codec ID                    : S_TEXT/UTF8
Codec ID/Info               : UTF-8 Plain Text
Duration                    : 1 h 43 min
Bit rate                    : 1 b/s
Count of elements           : 48
Stream size                 : 1.27 KiB (0%)
Title                       : Eng forced
Language                    : English
Default                     : No
Forced                      : No

Text #2
ID                          : 5
Format                      : UTF-8
Codec ID                    : S_TEXT/UTF8
Codec ID/Info               : UTF-8 Plain Text
Duration                    : 1 h 56 min
Bit rate                    : 62 b/s
Count of elements           : 1724
Stream size                 : 53.2 KiB (0%)
Title                       : Eng full
Language                    : English
Default                     : No
Forced                      : No


Джерело: &
Подяка за українську доріжку п.Covenant


 Трекер:    Зареєстрований   

Завантажити / скачати фільм українською



відео для новачків



 Зареєстрований:   2017-09-13 21:30
 Розмір:   4.19 GB 
 Оцінка фільму:   8.1/10 (Голосів: 56)
   
Lil`Antoni 
VIP


З нами з: 25.02.12
Востаннє: 19.09.17
Повідомлень: 391

2017-09-13 16:18  
Сподобався трейлер, чекаю на даний фільм. Дякую за реліз
249 
Новенький


З нами з: 14.03.12
Востаннє: 19.09.17
Повідомлень: 15

2017-09-13 22:48  
Класний фільм! Варта подивитись!
ne4ubo 
Новенький


З нами з: 04.11.14
Востаннє: 19.09.17
Повідомлень: 1

2017-09-16 22:42  
і тут президент Боснії Rolleyes (2)
KeryaS 
Частий відвідувач


З нами з: 01.09.14
Востаннє: 20.09.17
Повідомлень: 25

2017-09-17 08:10  
Один раз глянути можна, якщо не вдумуватися в те що відбувається на екрані Happy
bissrib 
Частий відвідувач


З нами з: 04.06.12
Востаннє: 19.09.17
Повідомлень: 43

2017-09-19 20:45  
Джексон гіперофігенний!
Втім, як і завжди.

Ваш часовий пояс: GMT + 2 Години

Нова тема   Відповісти