Сонік Бум / Sonic Boom (Сезон 2, серій 33 з 52) (2017) AVC

Нові коментарі

Нова тема   Відповісти
Автор Повідомлення
sergiyko.5 
Попереджень: 1
Попереджень: 1 


З нами з: 25.02.16
Востаннє: 19.11.17
Повідомлень: 1200

2017-09-13 09:32  
Сонік Бум / Sonic Boom (Сезон 2, серій 33 з 52) (2017) AVC

Сонік Бум / Sonic Boom (Сезон 2, серій 33 з 52) (2017) AVC

Жанр: мультсеріал, пригоди, комедія, фентезі, бойовик
Країна: США, Франція
Режисер: Наталіс Раут Сьюзак

Сюжет:
Сонік – найшвидший у світі їжачок! У нього та друзів непроста місія – врятувати світ від злодіїв та завадити їм у втіленні своїх планів.

Від глибоких каньйонів до безкраїх пустель – спритні друзі, озброївшись надсучасними технологіями, будуть чинити неабиякий опір поганим хлопцям та боротися з непередбачуваними кіборгами. Які нові пригоди їм доведеться пережити, та що чекає на них наприкінці шляху? Дізнаємось у мультику «Сонік Бум»!




Тривалість: 1 серія: 11:00 (цілком серій: 33 з 52)
Якість:

Відео: кодек: розмір кадру: 1024 х 576 бітрейт: 1900 кб/с
Аудіо: мова: українська переклад: багатоголосий закадровий кодек: 2.0 бітрейт: 132 кб/с
Джерело озвучення:
Джерело відеофайлів: архів MEGOGO
Перелік серій
01.Tommy Thunder: Method Actor
02.Spacemageddonocalypse
03.Nutwork
04.Alone Again, Unnaturally
05.The Biggest Fan
06.Anything You Can Do, I Can Do Worse-er
07.I Can Sea Sonic's Fear from Here
08.In the Midnight Hour
09.Multi-Tails
10.Strike
11.The Evil Dr. Orbot
12.Knuck Knuck! Who's Here
13.Mech Suits Me
14.FiendBot
15.Og Man Out
16.Knine-to-Five Knuckles
17.Blackout
18.Unnamed Episode
19.Robot Employees
20.Give Bees a Chance
21.Mombot
22.Muckfoot.
23.Nominatus Rising
24.Eggman's Brother
25.Do Not Disturb
26.Robots from the Sky.Part 1
27.Robots from the Sky.Part 2
28.Robots from the Sky.Part 3
29.Robots from the Sky.Part 4

32.Planes Trains and Dude Mobiles
33.Sticks and Amy's Excellent Staycation
34.Inn Sanity
35.Mister Eggman
Про файл:
General
Complete name : E:\MULTFILMS\Sonic Boom S02 \S02E01.Tommy Thunder. Method Actor..mp4
Format : MPEG-4
Format profile : Base Media
Codec ID : isom (isom/iso2/avc1/mp41)
File size : 163 MiB
Duration : 10 min 57 s
Overall bit rate : 2 083 kb/s
Writing application : Lavf54.63.104

Video
ID : 1
Format : AVC
Format/Info : Advanced Video Codec
Format profile : [email protected]
Format settings, CABAC : No
Format settings, RefFrames : 2 frames
Codec ID : avc1
Codec ID/Info : Advanced Video Coding
Duration : 10 min 57 s
Bit rate : 1 947 kb/s
Width : 1 024 pixels
Height : 576 pixels
Display aspect ratio : 16:9
Frame rate mode : Constant
Frame rate : 25.000 FPS
Color space : YUV
Chroma subsampling : 4:2:0
Bit depth : 8 bits
Scan type : Progressive
Bits/(Pixel*Frame) : 0.132
Stream size : 152 MiB (93%)

Audio
ID : 2
Format :
Format/Info : Advanced Audio Codec
Format profile : LC
Codec ID : 40
Duration : 10 min 57 s
Bit rate mode : Constant
Bit rate : 132 kb/s
Channel(s) : 2 channels
Channel positions : Front: L R
Sampling rate : 44.1 kHz
Frame rate : 43.066 FPS (1024 SPF)
Compression mode : Lossy
Stream size : 10.2 MiB (6%)
Language : English
Default : Yes
Alternate group : 1
Скріншоти:


Автор записів: sergiyko



Бронзовий реліз (на рейтинг впливає 75% завантаженого)
 Трекер:    Зареєстрований   

Завантажити / скачати мультфільм українською



відео для новачків



 Зареєстрований:   2017-10-24 20:04
 Розмір:   4.87 GB 
 Оцінка мультсеріалу:   9.9/10 (Голосів: 7)
   
sergiyko.5 
Попереджень: 1
Попереджень: 1 


З нами з: 25.02.16
Востаннє: 19.11.17
Повідомлень: 1200

2017-09-15 08:27  
Додав 5-8 серії.
sergiyko.5 
Попереджень: 1
Попереджень: 1 


З нами з: 25.02.16
Востаннє: 19.11.17
Повідомлень: 1200

2017-09-23 09:39  
Торент оновлено. Додав 9-19, 24 серії.
Maxx_Light 
Новенький


З нами з: 26.07.14
Востаннє: 18.11.17
Повідомлень: 6

2017-10-01 17:35  
Чекаю на решту серій)))
sergiyko.5 
Попереджень: 1
Попереджень: 1 


З нами з: 25.02.16
Востаннє: 19.11.17
Повідомлень: 1200

2017-10-24 20:07  
Додав нові серії. Канал показав 35 серій і почав повторювати знову з першої.
Ваш часовий пояс: GMT + 2 Години

Нова тема   Відповісти