На драйві / Baby Driver (2017) 1080p Ukr/Eng | Sub Ukr/Eng

Нові коментарі

Нова тема   Відповісти
Автор Повідомлення
Anonymous 







2017-09-12 23:59  
На драйві / Baby Driver (2017) 1080p Ukr/Eng | Sub Ukr/Eng

Альтернативний постер



Жанр: трилер, бойовик, кримінальний
Країна: Велика Британія, США



Кінокомпанія: Big Talk Productions, Double Negative, Media Rights Capital, TriStar Pictures, Working Title Films
Режисер: Едгар Райт / Edgar Wright
Актори: Енсел Елґорт / Ansel Elgort, Кевін Спейсі / Kevin Spacey, Лілі Джеймс / Lily James, Ейса Гонсалес / Eiza González, Джон Гемм / Jon Hamm, Джеймі Фокс / Jamie Foxx, Джон Бернтал / Jon Bernthal, Вілбур Фіцджеральд / Wilbur Fitzgerald, Флі / Flea та інші

Сюжет:
Молодий і талановитий гонщик на прізвисько Бейбі обожнює небезпеку, швидкість і стильну музику. Усе його життя - це суцільні погоні і перестрілки, адже він працює водієм, який допомагає бандитам втекти з місця злочину. Якщо він за кермом – у поліції немає шансів. Але Бейбі зустрічає дівчину і закохується... Він хоче вийти з гри, але спочатку йому потрібно виконати ще одне завдання, яке цілком може виявитися останнім в його житті...
Офіційні українські трейлери:





Рейтинг MPAA: R - особам до 17 років обов'язкова присутність батьків або дорослого опікуна
Вікова категорія: 16+

Тривалість: 1:52:39
Якість: 1080p
Відео:
кодек:
розмір кадру: 1920 х 804
бітрейт: 10,5 Мб/с

Аудіо # 1:
мова: українська
переклад: професійний дубльований | студія LeDoyen
кодек: 2.0 [Dolby Digital]
бітрейт: 192 кб/с

Аудіо # 2:
мова: англійська
переклад: оригінал
кодек: 5.1
бітрейт: 640 кб/с

Субтитри # 1-2:
мова: українська (форсовані, повні)
тип: програмні (м'які)
формат: srt

Субтитри # 3-4:
мова: англійська (повні, SDH)
тип: програмні (м'які)
формат: srt

Збережено оригінальні розділи, як на Blu-ray
Info
Код:
Complete name               : Baby Driver (2017) [Ukr,Eng sub.Ukr,Eng] 1080p [Hurtom].
Format                      :
Format version              : Version 4 / Version 2
File size                   : 8.91 GiB
Duration                    : 1 h 52 min
Overall bit rate            : 11.3 Mb/s
Cover                       : Yes
Attachments                 : cover.jpg

Video
ID                          : 1
Format                      : AVC
Format/Info                 : Advanced Video Codec
Format profile              : [email protected]
Format settings             : CABAC / 5 Ref Frames
Format settings, CABAC      : Yes
Format settings, RefFrames  : 5 frames
Codec ID                    : V_MPEG4/ISO/AVC
Duration                    : 1 h 52 min
Bit rate                    : 10.5 Mb/s
Width                       : 1 920 pixels
Height                      : 804 pixels
Display aspect ratio        : 2.40:1
Frame rate mode             : Constant
Frame rate                  : 23.976 (24000/1001) FPS
Color space                 : YUV
Chroma subsampling          : 4:2:0
Bit depth                   : 8 bits
Scan type                   : Progressive
Bits/(Pixel*Frame)          : 0.284
Stream size                 : 8.26 GiB (93%)
Title                       : На драйві / Baby Driver (2017) [Ukr,Eng sub.Ukr,Eng] 1080p [ExKinoRay]
Writing library             : core 148 r2705 3f5ed56
Encoding settings           : cabac=1 / ref=5 / deblock=1:-2:-2 / analyse=0x3:0x133 / me=umh / subme=10 / psy=1 / psy_rd=1.05:0.05 / mixed_ref=1 / me_range=32 / chroma_me=1 / trellis=2 / 8x8dct=1 / cqm=0 / deadzone=21,11 / fast_pskip=0 / chroma_qp_offset=-3 / threads=12 / lookahead_threads=2 / sliced_threads=0 / nr=0 / decimate=0 / interlaced=0 / bluray_compat=0 / constrained_intra=0 / bframes=8 / b_pyramid=2 / b_adapt=2 / b_bias=0 / direct=3 / weightb=1 / open_gop=0 / weightp=2 / keyint=240 / keyint_min=23 / scenecut=40 / intra_refresh=0 / rc_lookahead=50 / rc=2pass / mbtree=0 / bitrate=10500 / ratetol=1.0 / qcomp=0.60 / qpmin=0 / qpmax=69 / qpstep=4 / cplxblur=20.0 / qblur=0.5 / vbv_maxrate=50000 / vbv_bufsize=62500 / nal_hrd=none / filler=0 / ip_ratio=1.40 / pb_ratio=1.30 / aq=3:0.80
Language                    : English
Default                     : Yes
Forced                      : No

Audio #1
ID                          : 2
Format                      : AC-3
Format/Info                 : Audio Coding 3
Mode                        : Dolby Digital
Format settings, Endianness : Big
Codec ID                    : A_AC3
Duration                    : 1 h 52 min
Bit rate mode               : Constant
Bit rate                    : 192 kb/s
Channel(s)                  : 2 channels
Channel positions           : Front: L R
Sampling rate               : 48.0 kHz
Frame rate                  : 31.250 FPS (1536 SPF)
Bit depth                   : 16 bits
Compression mode            : Lossy
Stream size                 : 155 MiB (2%)
Title                       : Dub [LeDoyen, iTunes] 2.0 [Dolby Digital] 192 Kbps
Language                    : Ukrainian
Service kind                : Complete Main
Default                     : Yes
Forced                      : Yes

Audio #2
ID                          : 3
Format                      : AC-3
Format/Info                 : Audio Coding 3
Format settings, Endianness : Big
Codec ID                    : A_AC3
Duration                    : 1 h 52 min
Bit rate mode               : Constant
Bit rate                    : 640 kb/s
Channel(s)                  : 6 channels
Channel positions           : Front: L C R, Side: L R, LFE
Sampling rate               : 48.0 kHz
Frame rate                  : 31.250 FPS (1536 SPF)
Bit depth                   : 16 bits
Compression mode            : Lossy
Stream size                 : 516 MiB (6%)
Title                       : Original, 5.1 640 Kbps
Language                    : English
Service kind                : Complete Main
Default                     : No
Forced                      : No

Text #1
ID                          : 4
Format                      : UTF-8
Codec ID                    : S_TEXT/UTF8
Codec ID/Info               : UTF-8 Plain Text
Duration                    : 1 h 51 min
Bit rate                    : 9 b/s
Count of elements           : 227
Stream size                 : 8.02 KiB (0%)
Title                       : Ukr forced [iTunes]
Language                    : Ukrainian
Default                     : Yes
Forced                      : Yes

Text #2
ID                          : 5
Format                      : UTF-8
Codec ID                    : S_TEXT/UTF8
Codec ID/Info               : UTF-8 Plain Text
Duration                    : 1 h 51 min
Bit rate                    : 92 b/s
Count of elements           : 1604
Stream size                 : 75.9 KiB (0%)
Title                       : Ukr full [iTunes]
Language                    : Ukrainian
Default                     : No
Forced                      : No

Text #3
ID                          : 6
Format                      : UTF-8
Codec ID                    : S_TEXT/UTF8
Codec ID/Info               : UTF-8 Plain Text
Duration                    : 1 h 50 min
Bit rate                    : 67 b/s
Count of elements           : 1915
Stream size                 : 54.6 KiB (0%)
Title                       : Eng full
Language                    : English
Default                     : No
Forced                      : No

Text #4
ID                          : 7
Format                      : UTF-8
Codec ID                    : S_TEXT/UTF8
Codec ID/Info               : UTF-8 Plain Text
Duration                    : 1 h 51 min
Bit rate                    : 79 b/s
Count of elements           : 2275
Stream size                 : 65.1 KiB (0%)
Title                       : Eng SDH
Language                    : English
Default                     : No
Forced                      : No

Menu
00:00:00.000                : en:00:00:00.000
00:09:11.050                : en:00:09:11.050
00:13:30.476                : en:00:13:30.476
00:20:58.174                : en:00:20:58.174
00:25:17.599                : en:00:25:17.599
00:33:07.903                : en:00:33:07.903
00:43:43.246                : en:00:43:43.246
00:48:15.643                : en:00:48:15.643
00:53:39.550                : en:00:53:39.550
00:58:51.903                : en:00:58:51.903
01:05:23.545                : en:01:05:23.545
01:11:34.081                : en:01:11:34.081
01:19:17.002                : en:01:19:17.002
01:30:30.675                : en:01:30:30.675
01:38:04.170                : en:01:38:04.170
01:43:30.413                : en:01:43:30.413


Джерело: & &


 Трекер:    Зареєстрований   

Завантажити / скачати фільм українською



відео для новачків



 Зареєстрований:   2017-10-05 18:02
 Розмір:   8.91 GB 
 Оцінка фільму:   7.6/10 (Голосів: 59)
   
Інші релізи
   На драйві / Baby Driver (2017) AVC Ukr/Eng | Sub Ukr/Eng 11FrYkT  231 / 4   2.25 GB   2017-10-05 18:29 
   На драйві / Baby Driver (2017) 720p Ukr/Eng | Sub Ukr/Eng 11FrYkT  142 / 4   6.3 GB   2017-10-05 18:25 
   На драйві / Baby Driver (2017) Remux 1080p Ukr/Eng | Sub Ukr/Eng igor911  102 / 1   21.98 GB   2017-10-05 09:56 
   На драйві / Baby Driver (2017) Electroz  403 / 3   1.59 GB   2017-10-05 08:45 
usyk 
Свій


З нами з: 01.09.11
Востаннє: 20.10.17
Повідомлень: 58

2017-09-13 00:10  
Має бути крутий фільм)
Roma.Fine 
Новенький


З нами з: 24.03.15
Востаннє: 18.10.17
Повідомлень: 3

2017-09-13 22:43  
Ходив в кіно на нього, досить непоганий і сюжет інтересний не нудний!!все в міру стрілянина гонки моя оцінка 8.6
Xander78 
Новенький


З нами з: 03.11.13
Востаннє: 16.10.17
Повідомлень: 22

2017-09-16 18:46  
Roma.Fine написано:
моя оцінка 8.6


Я вибачаюсь але все ж спитаю. Не 9, не 8, навіть не 8.5, а саме 8.6!!!!! Чим саме така оцінка вмотивована?

JuiZZZe 
Новенький


З нами з: 25.09.13
Востаннє: 19.10.17
Повідомлень: 4

2017-09-17 10:21  
особиста оцінка 1 з 10 - реально не сподобався, сподобалися лише сцени з переслідуваннями
OL3X 
VIP


З нами з: 25.11.15
Востаннє: 20.10.17
Повідомлень: 409

2017-09-17 17:22  
Рекомендую до перегляду, все у фільмі сподобалось.
IAmHusein 
Новенький


З нами з: 01.04.13
Востаннє: 18.10.17
Повідомлень: 2

2017-09-17 23:22  
Один з найкращих фільмів, які я бачив у житті.

Жива класика Голлівуду.

usibat2015 
Свій


З нами з: 20.10.15
Востаннє: 18.10.17
Повідомлень: 68

2017-09-19 20:49  
Дуже класний фільм цікавий не нудний ходив в кіно дуже сподобався ставлю 9 з 10 рекомендую
eisenmann 
Свій


З нами з: 26.09.12
Востаннє: 20.10.17
Повідомлень: 62

2017-09-19 20:53  
Крім екшену, нічого не побачив, щоб заслуговувало високої оцінки. ІМHO фільм суто для перегляду в кіно і сенсу дивитися вдома немає ніякого.
mrsdoubtfire 
Свій


З нами з: 22.10.15
Востаннє: 20.10.17
Повідомлень: 134

2017-09-20 19:37  
Це мій улюблений тип фільму - несхожий на інші - за стилем, режисурою та концептуально, + решта речей на високому рівні - гарна історія, неперевершена гра та неочікуваний сюжет. Контрінтуїтивно, полегшало від того, що Едґар Райт не знайшов спільної мови з Марвел щодо Людини-Мурахи. По-перше, в нього з'явився вільний час на цей фільм, по-друге, важко уявити чи з того співробітництва вийшло б щось путнє. Це наче мастити сало шоколадом - вони не створені одне для одного.
-VipeR- 
VIP


З нами з: 17.07.08
Востаннє: 20.10.17
Повідомлень: 293

2017-09-21 12:42  
Шикарний бойовик - мюзикл. Музика дуже гармонічно вписана в сюжет. Гонки чудові, мінімум (або й повна відсутність комп'ютерної графіки) - роблять цей фільм дійсно захопливим, а персонажам дійсно співпереживаєш.
BVS1977 
Новенький


З нами з: 24.02.13
Востаннє: 19.10.17
Повідомлень: 1

2017-10-04 13:03  
Початок екшену просто феєричний. А ось фінал дещо "розмитий" та "зкомканий"...
bot 
робот


З нами з: 30.09.07
Востаннє: 26.05.05
Повідомлень: 17720

2017-10-05 18:02  
Тему перенесено з Анонси релізів до форуму Фільми в HD


igor911

kiboal 
Свій


З нами з: 25.12.14
Востаннє: 17.10.17
Повідомлень: 69

2017-10-05 21:17  
ну добре, с такою дивною назвою Baby driver із такими оцінками нада глянути
Pasha707 
Новенький


З нами з: 19.08.17
Востаннє: 18.10.17
Повідомлень: 7

2017-10-05 22:12  
mrsdoubtfire
Тут немае оригiнального концепту, таких фiльмiв про крутих водiiв було вже багато, наприклад Драйв, Перевiзник, Таксi, але Райт змiг створити зi старих iдей, дуже гарний и якiсний фiльм, хоч в ньому и банальна iсторiя але нiкто крiм Райта не зробить с банальноi iсторii оригiнальний та якiсний фiльм.

zloydark 
Новенький


З нами з: 11.05.15
Востаннє: 20.10.17
Повідомлень: 16

2017-10-06 23:35  
3 з 10 не більше
pavlo 
Свій


З нами з: 06.11.08
Востаннє: 20.10.17
Повідомлень: 60

2017-10-07 11:37  
нормального звуку на блуреї не було?
Anonymous 







2017-10-07 12:37  
pavlo написано:
нормального звуку на блуреї не було?

взагалі українського не було (і не буде) на блуреї https://toloka.to/t78349

konig2 
Новенький


З нами з: 12.11.11
Востаннє: 16.10.17
Повідомлень: 3

2017-10-07 20:35  
загалом сподобалося все окрім завершення. загальне враження таке, ніби в режисерів вистачило натхнення тільки до середини фільму, а далі доручили писати сценарій не найкращим студентам. моя оцінка ДО середини фільму 8 з 10, решту можна не дивитись.
loz_ko 
Новенький


З нами з: 29.07.08
Востаннє: 20.10.17
Повідомлень: 12

2017-10-07 21:59  
Давно такого нудного фільму не бачив.
archi86 
Свій


З нами з: 06.01.15
Востаннє: 20.10.17
Повідомлень: 115

2017-10-08 10:27  
Не поганий фільм, вартий перегляду, 4+.
maleficmax 
Свій


З нами з: 18.04.12
Востаннє: 19.10.17
Повідомлень: 55

2017-10-09 18:09  
Окремо укр доріжку можна десь взяти?
Дякую!

Chester[LP] 
Новенький


З нами з: 04.08.12
Востаннє: 20.10.17
Повідомлень: 18

2017-10-09 22:12  
Один з найкращих фільмів цього року. Дивився в кінотеатрі. Саундтреки просто космос. Також спободобавсья екшин, на дуже високому рівні.
funkylosik 
Новенький


З нами з: 28.07.09
Востаннє: 19.10.17
Повідомлень: 10

2017-10-09 23:36  
Погоджуюсь, класний фільм, але кінцівка класична) Тим не менш, дивився із задоволенням.
jloohatik 
Частий відвідувач


З нами з: 10.09.11
Востаннє: 11.10.17
Повідомлень: 28

2017-10-11 12:44  
Поведінка головного героя деколи дуже бісить, є пару моментів які просто хочеться скіпнути бо вони надто банальні і передбачувані, ну і загалом фільм на один раз..

Море музики
Купа драйву
Багато стрілянини

6 помідорів з 10

Ваш часовий пояс: GMT + 2 Години

Нова тема   Відповісти