Марсіянин / The Martian (2015) UHD Remux 4K 2160p Ukr/Eng | Sub Ukr/Eng

Нові коментарі

Нова тема   Відповісти
Автор Повідомлення
Babamin 
Частий відвідувач


З нами з: 29.12.15
Востаннє: 25.09.17
Повідомлень: 29

2017-09-12 13:04  
Марсіянин / The Martian (2015) UHD Remux 4K 2160p Ukr/Eng | Sub Ukr/Eng

Марсіянин / The Martian (2015) UHD Remux 4K 2160p Ukr/Eng | Sub Ukr/Eng


Жанр: пригоди, фантастика
Країна: США



Кінокомпанія: Twentieth Century Fox
Режисер: Рідлі Скотт
Актори: Метт Деймон, Джессіка Честейн, Кейт Мара, Майкл Пенья, Себастіан Стен, Шон Бін, Дональд Гловер, Чіветель Еджифор, Джефф Деніелс, Аксель Хенні та інші.

Сюжет:
Марк Уотні - один з членів експедиції "Арес-3" на Марс. Щоб уникнути загибелі людей під час лютої бурі, було прийнято рішення всю місію евакуювати. Однак не всі встигли вчасно покинути червону планету. На Землі прийшли до висновку, що Марк Уотні трагічно загинув під час сильної бурі, хоча насправді він живий. У нього найважча місія в історії людства: вижити на чужій планеті одному, з обмеженою кількістю продуктів і без можливості зв'язатися з домом. До наступної місії на Марс потрібно чекати як мінімум чотири роки. Марку доведеться використовувати всю свою кмітливість і навички, щоб не тільки повідомити про те, що він не помер, але і постаратися зберегти своє життя.

Тривалість: 02:21:37
Якість: 4K UltraHD Remux 2160p
Контейнер:

Відео:
кодек: H.265
розмір кадру: 3840 х 2160
бітрейт: 34736 кб/с
бітова глибина: 10 біт
кольоровий простір: BT.2020 (HDR)

Аудіо # 1:
мова: українська
переклад: професійний дубльований (Blu-ray EUR)
кодек: 5.1
бітрейт: 448 кб/с

Аудіо # 2:
мова: англійська
переклад: оригінал
кодек: TrueHD 7.1
бітрейт: 5475 кб/с

Субтитри (повні та форсовані):
мова: українська (повні - Blu-ray EUR)
тип: програмні (м'які)
формат: *.srt

Субтитри (Forced, Full, SDH, SDH-Colored):
мова: англійська
тип: програмні (м'які)
формат: *.srt
MInfo:
General
Complete name : The.Martian.2015.UHD.HDR.Remux.HEVC.4K.2160p-Toloka.
Format :
Format version : Version 4 / Version 2
File size : 40.3 GiB
Duration : 2 h 21 min
Overall bit rate mode : Variable
Overall bit rate : 40.7 Mb/s
Movie name : Марсіянин / The Martian (2015) 4K UHD-Remux HEVC HDR 2160p Ukr/Eng | Sub Ukr/Eng
Encoded date : UTC 2017-09-12 08:35:10
Writing application : mkvmerge v14.0.0 ('Flow') 64bit
Writing library : libebml v1.3.4 + libmatroska v1.4.5

Video
ID : 1
Format : HEVC
Format/Info : High Efficiency Video Coding
Format profile : Main [email protected]@High
Codec ID : V_MPEGH/ISO/HEVC
Duration : 2 h 21 min
Bit rate : 34.7 Mb/s
Width : 3 840 pixels
Height : 2 160 pixels
Display aspect ratio : 16:9
Frame rate mode : Constant
Frame rate : 23.976 (24000/1001) FPS
Color space : YUV
Chroma subsampling : 4:2:0 (Type 2)
Bit depth : 10 bits
Bits/(Pixel*Frame) : 0.175
Stream size : 34.4 GiB (85%)
Title : The.Martian.2015.UHD.HDR.Remux.HEVC.4K.2160p-Toloka
Writing library : ATEME Titan KFE 3.7.3 (4.7.3.1003)
Default : Yes
Forced : No
Color range : Limited
Color primaries : BT.2020
Transfer characteristics : SMPTE ST 2084
Matrix coefficients : BT.2020 non-constant
Mastering display color pri : R: x=0.680000 y=0.320000, G: x=0.265000 y=0.690000, B: x=0.150000 y=0.060000, White point: x=0.312700 y=0.329000
Mastering display luminance : min: 0.0000 cd/m2, max: 1000.0000 cd/m2

Audio #1
ID : 2
Format : AC-3
Format/Info : Audio Coding 3
Format settings, Endianness : Big
Codec ID : A_AC3
Duration : 2 h 21 min
Bit rate mode : Constant
Bit rate : 448 kb/s
Channel(s) : 6 channels
Channel positions : Front: L C R, Side: L R, LFE
Sampling rate : 48.0 kHz
Frame rate : 31.250 FPS (1536 spf)
Bit depth : 16 bits
Compression mode : Lossy
Stream size : 454 MiB (1%)
Title : 5.1 @ 448 Kbps - UKR (Dub) | «Postmodern» - Blu-Ray EUR
Language : Ukrainian
Service kind : Complete Main
Default : Yes
Forced : No

Audio #2
ID : 3
Format : TrueHD
Format profile : TrueHD+Atmos / TrueHD
Codec ID : A_TRUEHD
Duration : 2 h 21 min
Bit rate mode : Variable
Bit rate : 5 475 kb/s
Maximum bit rate : 5 997 kb/s
Channel(s) : Object Based / 8 channels
Channel positions : Object Based / Front: L C R, Side: L R, Back: L R, LFE
Sampling rate : / 48.0 kHz
Frame rate : 1 200.000 FPS (40 spf)
Compression mode : Lossless
Delay relative to video : 32 ms
Stream size : 5.42 GiB (13%)
Language : English
Default : No
Forced : No

Text #1
ID : 4
Format : UTF-8
Codec ID : S_TEXT/UTF8
Codec ID/Info : UTF-8 Plain Text
Duration : 2 h 10 min
Bit rate : 2 b/s
Count of elements : 49
Stream size : 2.70 KiB (0%)
Title : Forced
Language : Ukrainian
Default : Yes
Forced : Yes

Text #2
ID : 5
Format : UTF-8
Codec ID : S_TEXT/UTF8
Codec ID/Info : UTF-8 Plain Text
Duration : 2 h 15 min
Bit rate : 97 b/s
Count of elements : 1752
Stream size : 96.5 KiB (0%)
Title : Full
Language : Ukrainian
Default : No
Forced : No

Text #3
ID : 6
Format : UTF-8
Codec ID : S_TEXT/UTF8
Codec ID/Info : UTF-8 Plain Text
Duration : 47 s 715 ms
Bit rate : 106 b/s
Count of elements : 12
Stream size : 634 Bytes (0%)
Title : Forced
Language : English
Default : No
Forced : No

Text #4
ID : 7
Format : UTF-8
Codec ID : S_TEXT/UTF8
Codec ID/Info : UTF-8 Plain Text
Duration : 2 h 15 min
Bit rate : 62 b/s
Count of elements : 1984
Stream size : 62.3 KiB (0%)
Title : Full
Language : English
Default : No
Forced : No

Text #5
ID : 8
Format : UTF-8
Codec ID : S_TEXT/UTF8
Codec ID/Info : UTF-8 Plain Text
Duration : 2 h 15 min
Bit rate : 67 b/s
Count of elements : 2144
Stream size : 67.7 KiB (0%)
Title : SDH
Language : English
Default : No
Forced : No

Text #6
ID : 9
Format : UTF-8
Codec ID : S_TEXT/UTF8
Codec ID/Info : UTF-8 Plain Text
Duration : 2 h 15 min
Bit rate : 80 b/s
Count of elements : 2144
Stream size : 80.5 KiB (0%)
Title : SDH-Colored
Language : English
Default : No
Forced : No

Menu
00:00:00.000 : en:Chapter 1
00:03:22.285 : en:Chapter 2
00:10:08.983 : en:Chapter 3
00:15:24.590 : en:Chapter 4
00:18:25.187 : en:Chapter 5
00:21:34.376 : en:Chapter 6
00:24:28.091 : en:Chapter 7
00:28:52.689 : en:Chapter 8
00:31:36.644 : en:Chapter 9
00:34:21.100 : en:Chapter 10
00:39:13.434 : en:Chapter 11
00:41:21.770 : en:Chapter 12
00:46:23.530 : en:Chapter 13
00:49:25.086 : en:Chapter 14
00:56:15.747 : en:Chapter 15
00:59:40.493 : en:Chapter 16
01:02:23.823 : en:Chapter 17
01:06:53.133 : en:Chapter 18
01:09:52.980 : en:Chapter 19
01:13:51.301 : en:Chapter 20
01:18:38.254 : en:Chapter 21
01:22:52.467 : en:Chapter 22
01:30:41.268 : en:Chapter 23
01:37:30.093 : en:Chapter 24
01:43:31.997 : en:Chapter 25
01:46:16.286 : en:Chapter 26
01:50:18.736 : en:Chapter 27
01:54:07.965 : en:Chapter 28
01:57:49.311 : en:Chapter 29
02:04:41.682 : en:Chapter 30
02:11:05.732 : en:Chapter 31
02:13:28.792 : en:Chapter 32
Скріншоти:







Джерело: Подяка FREQUENCY


Золотий реліз (завантажене не впливає на рейтинг)
 Трекер:    Зареєстрований   

Завантажити / скачати фільм українською



відео для новачків



 Зареєстрований:   2017-09-12 13:04
 Розмір:   40.29 GB 
 Оцінка фільму:   9.9/10 (Голосів: 8)
   
Інші релізи
   Марсіянин [Розширена версія] / The Martian [Extended Cut] (2015) AVC Ukr/Eng | Sub Ukr/Eng Kris  14 / 4   4.47 GB   2017-07-15 20:26 
   Марсіянин [Розширена версія] / The Martian [Extended Cut] (2015) Ukr | Sub Ukr Demrandir  19 / 0   2.43 GB   2017-07-10 14:55 
   Марсіянин [Розширена версія] / The Martian [Extended Cut] (2015) [5.1 ] Український дубляж + вставки оригіналу | Sub Ukr Demrandir  1 / 0   485 MB   2017-07-10 14:39 
   Марсіянин / The Martian (2015) 720p-mini (60 fps) Drool  10 / 0   5.54 GB   2016-01-19 14:49 
   Марсіянин / The Martian (2015) AVC Ukr/Eng | Sub Ukr/Eng BASTERD-94  15 / 0   2.91 GB   2016-01-13 23:30 
   Марсіянин / The Martian (2015) Remux 1080p Ukr/Eng | Sub Ukr/Eng famous37  6 / 1   32.09 GB   2016-01-13 21:14 
   Марсіянин / The Martian (2015) 720p-mini Drool  4 / 0   2.63 GB   2016-01-13 00:01 
   Марсіянин / The Martian (2015) 1080p Ukr/Eng | Sub Ukr/Eng 11FrYkT  11 / 1   16.09 GB   2016-01-10 00:04 
   Марсіянин / The Martian (2015) 720p Ukr/Eng | Sub Ukr/Eng 11FrYkT  17 / 0   7.09 GB   2016-01-09 23:46 
   Марсіянин / The Martian (2015) Ukr/Eng | Sub Ukr/Eng Gelios  33 / 0   2.18 GB   2016-01-09 23:40 
   Марсіянин / The Martian (2015) 1080p 3D Ukr/Eng | Sub Ukr/Eng [Half SideBySide] -VipeR-  5 / 0   13.13 GB   2016-01-03 18:25 
EvGaS 
Відео Гуртом - субтитрування
Відео Гуртом - субтитрування


З нами з: 27.02.12
Востаннє: 26.09.17
Повідомлень: 3901

2017-09-12 13:29  
Поглянув скріншоти у масштабі 100%.
Як на мене — теж дута якість, нічим не краща за можливості чіткості FullHD 1080p.
Тобто, пікселів багато, але сенсу з них дуже мало, такий вигляд, наче відео перетисли з чогось дуже бідного на бітрейт, а потім його просто ввалили на потрібний показник та розтягнули рамку кадру до потрібного розміру.

migelius 
Свій


З нами з: 29.02.08
Востаннє: 25.09.17
Повідомлень: 100

2017-09-12 16:42  
Naspravdi tut vazlyvishu rol vidigrae HDR niz resolution.
EvGaS 
Відео Гуртом - субтитрування
Відео Гуртом - субтитрування


З нами з: 27.02.12
Востаннє: 26.09.17
Повідомлень: 3901

2017-09-12 18:00  
migelius, якщо чіткість та бітрейт фактично удвічі менші за візуальним спостереженням, аніж сюди номінально вгатили, то корекції кольору тут не надто допоможуть — мазанина блякла, чи мазанина яскрава — усе одно така. Просто змарновані пікселі.
migelius 
Свій


З нами з: 29.02.08
Востаннє: 25.09.17
Повідомлень: 100

2017-09-12 18:15  
Mav nagodu dyvytys cei film u 4k blu ray i vse vyglyadalo prosto super, mozlyvo dannyi ne naikrashchoi yakosti.
geroyasfalta 
Свій


З нами з: 20.06.11
Востаннє: 26.09.17
Повідомлень: 55

2017-09-13 11:10  
Splash pro i Media Player Classic показують що оригінальний звук не Долбі а ДТС) А матрьошка некорректно пакує Долби Атмос,вийшло що ядро окремо,а основний поток теж окремо(
Babamin 
Частий відвідувач


З нами з: 29.12.15
Востаннє: 25.09.17
Повідомлень: 29

2017-09-13 17:10  
geroyasfalta написано:
Splash pro i Media Player Classic показують що оригінальний звук не Долбі а ДТС) А матрьошка некорректно пакує Долби Атмос,вийшло що ядро окремо,а основний поток теж окремо(

я б взагалі оригінальний не вкладав в матрьошку, але не можна так з ремуксом. Всім потрібний оригінальний звук? Я вас благаю Muted

geroyasfalta 
Свій


З нами з: 20.06.11
Востаннє: 26.09.17
Повідомлень: 55

2017-09-14 09:45  
Babamin
Я просто планую купити ресівер і акустику,щоб дивитись фільми с Атмосом і ДТС:Х.От і собираю весь такий оригінальний звук де можливо

k.serhiy 
Новенький


З нами з: 01.08.12
Востаннє: 26.09.17
Повідомлень: 3

2017-09-16 04:27  
В кого вийшло подивитися цей фільм на комп"ютері? Яке повинне бути залізо? (Екран 4к)
alexus255 
Новенький


З нами з: 06.04.17
Востаннє: 23.09.17
Повідомлень: 4

2017-09-23 01:06  
Копіюю своє ж повідомлення з іншої теми, лінь по новій писати:

-_-B_E_N_D_E_R-_- написано:
І які характеристики пк мають бути, щоб його подивитися?

Хтось скаже, що необхідна найпростіша сучасна відеокарта. Я теж так думав. Поставив GTX 1050 і був, м'яко кажучи, розчарований. Більшість 4к ледь йшла, завантаження процесора 100% (Core quad q9550, 4 ядра), частина 4к видавала слайд-шоу. Хоча всі скрізь кажуть, що тільки відеокарта рішає, бо в ній є відповідний кодек (HEVC 265 чи щось таке, я не експерт). Тепер, коли докупив до неї ryzen 1600 на 6 ядер/12 потоків - стало гуд. Завантаження близько 5% і все чітко і гладенько. Навіть з використанням SVP (програмної уплавлялки) на максимальних налаштуваннях завантажує проц відсотків на 55-60.
Отже, щоб дивитися 4к достатньо найпростішої відяхи останнього покоління + найпростіший проц останнього покоління, типо гіперпентіума (а може і його попередника g4400) чи райзен 3 1200. Окремо одне або друге дасть слайд шоу. А щоб дивитися 4к з максимальною програмною обробкою - то хоч би сучасних 4 ядра/8 потоків.
Нічого захмарного.

kryk-v.ya. 
Поважний учасник


З нами з: 14.02.14
Востаннє: 26.09.17
Повідомлень: 186

2017-09-23 13:31  
4к-мамма мія...хоч бери і всі телевізори викидуй,і б'йо до склепу...
k.serhiy 
Новенький


З нами з: 01.08.12
Востаннє: 26.09.17
Повідомлень: 3

2017-09-26 03:37  
alexus255

Вдалося подивитися на компі не змінюючи залізо. Використовував Media Player Classis + madVR codec. Його треба вибрати в налаштуваннях плеєра.
Моє залізо: CPU і7 5820К, Video card - GT 1030. Цього вистачає щоб комфортно дивится FullHD закодований HEVC 265, але 4К відео HEVC 265 може бути проблемним для цієї відеокарти (залежить від бітрейта: менше 40мбітс показує нормально). На мою думку треба мінімум GTX 1060 для 4К HEVC 265.

Ваш часовий пояс: GMT + 2 Години

Нова тема   Відповісти