Елементарно (Сезон 2) / Elementary (Season 2) (2013-2014) 1080p Ukr/Eng | Sub Eng

Нові коментарі

Нова тема   Відповісти
Автор Повідомлення
Anonymous 







2017-09-11 02:11  
Елементарно (Сезон 2) / Elementary (Season 2) (2013-2014) 1080p Ukr/Eng | Sub Eng

Елементарно (Сезон 2) / Elementary (Season 2) (2013-2014) 1080p Ukr/Eng | Sub Eng


Жанр: детектив, драма
Країна: США



Кінокомпанія: Hill of Beans Productions, Timberman-Beverly Productions, CBS Television Studios
Режисер: Майкл Куеста
Актори: Джонні Лі Міллер, Люсі Лью, Ейдан Куінн, Менні Перез, Крістен Буш, Лайам Фергюсон, Келлі Сауферленд, Отем Стейн

Сюжет:
Сучасна історія про дует, що розкриває злочини, Шерлока Холмса й доктора Ватсона, який допомагає поліції Нью-Йорка в найскладніших справах. Після лікування від алкоголізму й наркоманії Шерлок втікає з Лондона на Манхеттен, а його багатий батько змушує його взяти «компаньйонку по тверезості» — Джоан Ватсон. Для Джоан це можливість надолужити минулі гріхи — вона була успішним хірургом до того, як з її провини загинув пацієнт, і вона втратила ліцензію. Але Шерлок не такий, як її попередні клієнти. Він відразу ж повідомляє, що підтримувати тверезість він буде за допомогою роботи консультантом у поліції Нью-Йорка. У Ватсон не залишається вибору крім як іти за ним усюди. Шерлок знаходить її медичні знання корисними, а вона раптово знаходить у собі таланти слідчого. Застосувавши дедуктивний метод, легко здогадатися, що ексцентричний Шерлок Холмс довго не витримає в Нью-Йорку, розкриваючи злочини. Його пориви повинен стримувати вірний друг. Хто б це міг бути? Елементарно! Ватсон!


Тривалість: 1 серія: 42 хвилини (цілком серій: 24)
Перелік серій

Elementary. Season 2, Episode 1. Step Nine | Дев'ятий крок
Elementary. Season 2, Episode 2. Solve for X | Рішення для Х
Elementary. Season 2, Episode 3. We Are Everyone | Ми є "Усі"
Elementary. Season 2, Episode 4. Poison Pen | Анонімне листування
Elementary. Season 2, Episode 5. Ancient History | Давня історія
Elementary. Season 2, Episode 6. An Unnatural Arrangement | Неприродна композиція
Elementary. Season 2, Episode 7. The Marchioness | Маркіза
Elementary. Season 2, Episode 8. Blood Is Thicker | Кров густіша
Elementary. Season 2, Episode 9. On the Line | По прямій
Elementary. Season 2, Episode 10. Tremors | Тремтіння
Elementary. Season 2, Episode 11. Internal Audit | Внутрішня перевірка
Elementary. Season 2, Episode 12. The Diabolical Kind | Диявольський вид
Elementary. Season 2, Episode 13. All in the Family | Усі члени сім'ї
Elementary. Season 2, Episode 14. Dead Clade Walking | Приречений таксон
Elementary. Season 2, Episode 15. Corpse De Ballet | Труп балерини
Elementary. Season 2, Episode 16. The One Percent Solution | Одновідсоткове рішення
Elementary. Season 2, Episode 17. Ears to You | Вуха для тебе
Elementary. Season 2, Episode 18. The Hound of the Cancer Cells | Розшукувач ракових клітин
Elementary. Season 2, Episode 19. The Many Mouths of Aaron Colville | Багато ртів Аарона Колвілля
Elementary. Season 2, Episode 20. No Lack of Void | Суцільна повна пустота
Elementary. Season 2, Episode 21. The Man with the Twisted Lip | Людина із закатанною губою
Elementary. Season 2, Episode 22. Paint It Black | Пофарбуй чорним
Elementary. Season 2, Episode 23. Art in the Blood | Криваве мистецтво
Elementary. Season 2, Episode 24. The Grand Experiment | Великий експеримент
Якість: 1080p [Amazon Video]
Відео:
кодек:
розмір кадру: 1920 х 1080
бітрейт: ~ 11.3 Мб/с

Аудіо # 1:
мова: українська
переклад: професійний дубльований
кодек: 2.0
бітрейт: 192 кб/с
Інформація про озвучення

Переклад і озвучення виконано:
студією "Так Треба Продакшн" на замовлення телеканалу НТН

Звук записано з телеканалу: НТН
Ролі озвучили: Володимир Терещук.
Джерело інформації: fl_fl https://toloka.to/t83214
Аудіо # 2:
мова: англійська
переклад: оригінал
кодек: E- 5.1
бітрейт: 640 кб/с

Джерело озвучення:


Субтитри # 1:
мова: англійська
тип: програмні (м'які)
формат: *.srt

Субтитри # 2: SDH
мова: англійська
тип: програмні (м'які)
формат: *.srt
Info

General
Unique ID : 248284835885579205069218825553083577761 (0xBAC9EB863AC55AB4AAC6BC35AE6735A1)
Format :
Format version : Version 4 / Version 2
File size : 3.74 GiB
Duration : 43 min 18 s
Overall bit rate mode : Variable
Overall bit rate : 12.4 Mb/s
Encoded date : UTC 2017-09-13 16:44:12
Writing application : v6.1.0 ('Old Devil') built on Mar 2 2013 14:32:37
Writing library : libebml v1.3.0 + v1.4.0
Cover : Yes
Attachments : Cover.jpg

Video
ID : 1
Format : AVC
Format/Info : Advanced Video Codec
Format profile : [email protected]
Format settings, CABAC : Yes
Format settings, ReFrames : 4 frames
Codec ID : V_MPEG4/ISO/AVC
Duration : 43 min 18 s
Bit rate mode : Variable
Bit rate : 11.3 Mb/s
Maximum bit rate : 15.0 Mb/s
Width : 1 920 pixels
Height : 1 080 pixels
Display aspect ratio : 16:9
Frame rate mode : Constant
Frame rate : 23.976 (24000/1001) FPS
Color space : YUV
Chroma subsampling : 4:2:0
Bit depth : 8 bits
Scan type : Progressive
Bits/(Pixel*Frame) : 0.227
Stream size : 3.42 GiB (91%)
Title : Elementary. S02E01 (2013) AMZN 1080p [Ukr.Eng Sub.Eng] [Hurtom]
Writing library : core 148 r2623 d5b2374
Encoding settings : cabac=1 / ref=4 / deblock=1:-1:-1 / analyse=0x3:0x133 / me=umh / subme=9 / psy=1 / psy_rd=1.00:0.15 / mixed_ref=1 / me_range=24 / chroma_me=1 / trellis=2 / 8x8dct=1 / cqm=0 / deadzone=21,11 / fast_pskip=1 / chroma_qp_offset=-3 / threads=34 / lookahead_threads=5 / sliced_threads=0 / nr=150 / decimate=1 / interlaced=0 / bluray_compat=0 / constrained_intra=0 / bframes=8 / b_pyramid=2 / b_adapt=2 / b_bias=0 / direct=3 / weightb=1 / open_gop=0 / weightp=2 / keyint=120 / keyint_min=61 / scenecut=0 / intra_refresh=0 / rc_lookahead=120 / rc=crf / mbtree=1 / crf=18.0 / qcomp=0.60 / qpmin=0 / qpmax=69 / qpstep=4 / vbv_maxrate=15000 / vbv_bufsize=31250 / crf_max=0.0 / nal_hrd=vbr / filler=0 / ip_ratio=1.40 / aq=3:1.00
Language : English
Default : Yes
Forced : No
Color range : Limited
Color primaries : BT.709
Transfer characteristics : BT.709
Matrix coefficients : BT.709

Audio #1
ID : 2
Format : AC-3
Format/Info : Audio Coding 3
Format settings, Endianness : Big
Codec ID : A_AC3
Duration : 43 min 18 s
Bit rate mode : Constant
Bit rate : 192 kb/s
Channel(s) : 2 channels
Channel positions : Front: L R
Sampling rate : 48.0 kHz
Frame rate : 31.250 FPS (1536 spf)
Bit depth : 16 bits
Compression mode : Lossy
Stream size : 59.5 MiB (2%)
Title : Dub | NTN [TTP] | 2.0 | 192 kbps
Language : Ukrainian
Service kind : Complete Main
Default : Yes
Forced : No

Audio #2
ID : 3
Format : E-AC-3
Format/Info : Enhanced Audio Coding 3
Format settings, Endianness : Big
Codec ID : A_EAC3
Duration : 43 min 18 s
Bit rate mode : Constant
Bit rate : 640 kb/s
Channel(s) : 6 channels
Channel positions : Front: L C R, Side: L R, LFE
Sampling rate : 48.0 kHz
Frame rate : 187.500 FPS (256 spf)
Compression mode : Lossy
Stream size : 198 MiB (5%)
Title : Original
Language : English
Service kind : Complete Main
Default : No
Forced : No

Text #1
ID : 4
Format : UTF-8
Codec ID : S_TEXT/UTF8
Codec ID/Info : UTF-8 Plain Text
Title : Original
Language : English
Default : No
Forced : No

Text #2
ID : 5
Format : UTF-8
Codec ID : S_TEXT/UTF8
Codec ID/Info : UTF-8 Plain Text
Title : Original (SDH)
Language : English
Default : No
Forced : No
Скріншоти






















1080p: S01 | S02 | S03 | S04 | S05 |

720p: S01 | S02 | S03 | S04 | S05 |

: S01 | S02 | S03 | S04 | S05 |



Джерело: &
Подяки:
За запис slavik_v_z , BILko, РОМЕО, woxeloid.
За синхронізацію slavik_v_z , BILko.
За постер Gashik.
Також панові: Dark Invader та іншим.
Особиста оцінка: 10 - без зайвих вагань рекомендую всім!

Не забуваємо дякувати!


Бронзовий реліз (на рейтинг впливає 75% завантаженого)
 Трекер:    Зареєстрований   

Завантажити / скачати серіал українською



відео для новачків



 Зареєстрований:   2017-09-14 17:10
 Розмір:   81.02 GB 
 Оцінка серіалу:   5.9/10 (Голосів: 23)
   
bot 
робот


З нами з: 30.09.07
Востаннє: 26.05.05
Повідомлень: 26455

2017-09-14 17:10  
Тему перенесено з Анонси релізів до форуму Серіали в HD


Pegass

Anonymous 







2017-09-20 18:47  
Pegass написано:
 Оцінка серіалу:   1.8/10 (Голосів: 11)

Те саме

igor911 
Модератор відео


З нами з: 18.01.08
Востаннє: 04.12.20
Повідомлень: 15088

2017-09-20 19:44  
Anonymous написано:
Оцінка серіалу:   1.8/10 (Голосів: 11)

10 одиниць від ботовода-мінусмена + 10ка від релізера. Типова ситуація.

0mage0 
VIP


З нами з: 06.10.15
Востаннє: 02.12.20
Повідомлень: 709

2020-02-16 16:46  
Загалом цікавий сезон. Сподіваюся, колись буде озвучено 3-й сезон українською.
Хоча під кінець ця шпигунська тема і хвойда Ватсон трошки почали піднапружувати. Ну і ці серії про вуха на спині та роботів розміром з комара (цікаво, а він обов'язково мав видавати такий самий звук, як комар?) це ж якась фантастика, га? Хоча, звісно, не здивуюся, якщо скоро такі дрони стануть реальністю Sad (1)

Ваш часовий пояс: GMT + 2 Години

Нова тема   Відповісти