Елементарно (Сезон 1) / Elementary (Season 1) (2012-2013) 1080p Ukr/Eng | Sub Eng

Нові коментарі

Нова тема   Відповісти
Автор Повідомлення
Anonymous 







2017-09-11 03:09  
Елементарно (Сезон 1) / Elementary (Season 1) (2012-2013) 1080p Ukr/Eng | Sub Eng

Елементарно (Сезон 1) / Elementary (Season 1) (2012-2013) 1080p Ukr/Eng | Sub Eng


Жанр: детектив, драма
Країна: США



Кінокомпанія: Hill of Beans Productions, Timberman-Beverly Productions, CBS Television Studios
Режисер: Майкл Куеста
Актори: Джонні Лі Міллер, Люсі Лью, Ейдан Куінн, Менні Перез, Крістен Буш, Лайам Фергюсон, Келлі Сауферленд, Отем Стейн

Сюжет:
Сучасна історія про дует, що розкриває злочини, Шерлока Холмса й доктора Ватсона, який допомагає поліції Нью-Йорка в найскладніших справах. Після лікування від алкоголізму й наркоманії Шерлок втікає з Лондона на Манхеттен, а його багатий батько змушує його взяти «компаньйонку по тверезості» — Джоан Ватсон. Для Джоан це можливість надолужити минулі гріхи — вона була успішним хірургом до того, як з її провини загинув пацієнт, і вона втратила ліцензію. Але Шерлок не такий, як її попередні клієнти. Він відразу ж повідомляє, що підтримувати тверезість він буде за допомогою роботи консультантом у поліції Нью-Йорка. У Ватсон не залишається вибору крім як іти за ним усюди. Шерлок знаходить її медичні знання корисними, а вона раптово знаходить у собі таланти слідчого. Застосувавши дедуктивний метод, легко здогадатися, що ексцентричний Шерлок Холмс довго не витримає в Нью-Йорку, розкриваючи злочини. Його пориви повинен стримувати вірний друг. Хто б це міг бути? Елементарно! Ватсон!


Тривалість: 1 серія: 42 хвилини (цілком серій: 24)
Перелік серій

Elementary. Season 1, Episode 1. Pilot | Пілот
Elementary. Season 1, Episode 2. While You Were Sleeping | Поки ти спала
Elementary. Season 1, Episode 3. Child Predator | Мисливець на дітей
Elementary. Season 1, Episode 4. The Rat Race | Щурячі перегони
Elementary. Season 1, Episode 5. Lesser Evils | Менше зло
Elementary. Season 1, Episode 6. Flight Risk | Ризик польоту
Elementary. Season 1, Episode 7. One Way to Get Off | Єдиний вихід
Elementary. Season 1, Episode 8. The Long Fuse | Довгий запал
Elementary. Season 1, Episode 9. You Do It to Yourself | Ти робиш це заради себе [уточнити]
Elementary. Season 1, Episode 10. The Leviathan | Левіафан
Elementary. Season 1, Episode 11. Dirty Laundry | Брудна білизна
Elementary. Season 1, Episode 12. M. | M.
Elementary. Season 1, Episode 13. The Red Team | Червона команда
Elementary. Season 1, Episode 14. The Deductionist | Геній дедукції
Elementary. Season 1, Episode 15. A Giant Gun, Filled with Drugs | Велика пушка, заряджена наркотиками
Elementary. Season 1, Episode 16. Details | Деталі
Elementary. Season 1, Episode 17. Possibility Two | Інша можливість [уточнити]
Elementary. Season 1, Episode 18. Déjà Vu All Over Again | Всюди дежавю
Elementary. Season 1, Episode 19. Snow Angels | Сніжні янголи
Elementary. Season 1, Episode 20. Dead Man's Switch | Заміна мерця [уточнити]
Elementary. Season 1, Episode 21. A Landmark Story | Віха історії
Elementary. Season 1, Episode 22. Risk Management | Управління ризиком
Elementary. Season 1, Episode 23. The Woman | Ця жінка
Elementary. Season 1, Episode 24. Heroine | Героїн
Якість: 1080p [Amazon Video]
Відео:
кодек:
розмір кадру: 1920 х 1080
бітрейт: ~ 12.6 Мб/с

Аудіо # 1:
мова: українська
переклад: професійний дубльований
кодек: 2.0
бітрейт: 192 кб/с
Примітка: В останній серії є місця без перекладу.
Інформація про озвучення


Переклад і озвучення виконано:
студією "Так Треба Продакшн" на замовлення телеканалу НТН

Звук записано з телеканалу: НТН
Ролі дублювали: Володимир Терещук.
Джерело інформації: fl_fl https://toloka.to/t83214
Аудіо # 2:
мова: англійська
переклад: оригінал
кодек: E- 5.1
бітрейт: 640 кб/с

Джерело озвучення:


Субтитри # 1:
мова: англійська
тип: програмні (м'які)
формат: *.srt

Субтитри # 2: SDH
мова: англійська
тип: програмні (м'які)
формат: *.srt
Info

General
Unique ID : 199532344443534849234859102165510370815 (0x961C881DBCD0DD52AB135C5DC90BB5FF)
Format :
Format version : Version 4 / Version 2
File size : 4.38 GiB
Duration : 45 min 44 s
Overall bit rate mode : Variable
Overall bit rate : 13.7 Mb/s
Encoded date : UTC 2017-09-12 09:05:28
Writing application : mkvmerge v6.1.0 ('Old Devil') built on Mar 2 2013 14:32:37
Writing library : libebml v1.3.0 + libmatroska v1.4.0
Cover : Yes
Attachments : Cover.jpg

Video
ID : 1
Format : AVC
Format/Info : Advanced Video Codec
Format profile : [email protected]
Format settings, CABAC : Yes
Format settings, ReFrames : 4 frames
Codec ID : V_MPEG4/ISO/AVC
Duration : 45 min 44 s
Bit rate mode : Variable
Bit rate : 12.6 Mb/s
Maximum bit rate : 15.0 Mb/s
Width : 1 920 pixels
Height : 1 080 pixels
Display aspect ratio : 16:9
Frame rate mode : Constant
Frame rate : 23.976 (24000/1001) FPS
Color space : YUV
Chroma subsampling : 4:2:0
Bit depth : 8 bits
Scan type : Progressive
Bits/(Pixel*Frame) : 0.254
Stream size : 4.03 GiB (92%)
Title : Elementary. S01E01 (2012) AMZN 1080p [Ukr.Eng Sub.Eng] [Hurtom]
Writing library : core 148 r2623 d5b2374
Encoding settings : cabac=1 / ref=4 / deblock=1:-1:-1 / analyse=0x3:0x133 / me=umh / subme=9 / psy=1 / psy_rd=1.00:0.15 / mixed_ref=1 / me_range=24 / chroma_me=1 / trellis=2 / 8x8dct=1 / cqm=0 / deadzone=21,11 / fast_pskip=1 / chroma_qp_offset=-3 / threads=34 / lookahead_threads=5 / sliced_threads=0 / nr=150 / decimate=1 / interlaced=0 / bluray_compat=0 / constrained_intra=0 / bframes=8 / b_pyramid=2 / b_adapt=2 / b_bias=0 / direct=3 / weightb=1 / open_gop=0 / weightp=2 / keyint=120 / keyint_min=61 / scenecut=0 / intra_refresh=0 / rc_lookahead=120 / rc=crf / mbtree=1 / crf=18.0 / qcomp=0.60 / qpmin=0 / qpmax=69 / qpstep=4 / vbv_maxrate=15000 / vbv_bufsize=31250 / crf_max=0.0 / nal_hrd=vbr / filler=0 / ip_ratio=1.40 / aq=3:1.00
Language : English
Default : Yes
Forced : No
Color range : Limited
Color primaries : BT.709
Transfer characteristics : BT.709
Matrix coefficients : BT.709

Audio #1
ID : 2
Format : AC-3
Format/Info : Audio Coding 3
Format settings, Endianness : Big
Codec ID : A_AC3
Duration : 45 min 44 s
Bit rate mode : Constant
Bit rate : 192 kb/s
Channel(s) : 2 channels
Channel positions : Front: L R
Sampling rate : 48.0 kHz
Frame rate : 31.250 FPS (1536 spf)
Bit depth : 16 bits
Compression mode : Lossy
Stream size : 62.8 MiB (1%)
Title : Dub | NTN [TTP] | 2.0 | 192 kbps
Language : Ukrainian
Service kind : Complete Main
Default : Yes
Forced : No

Audio #2
ID : 3
Format : E-AC-3
Format/Info : Enhanced Audio Coding 3
Format settings, Endianness : Big
Codec ID : A_EAC3
Duration : 45 min 44 s
Bit rate mode : Constant
Bit rate : 640 kb/s
Channel(s) : 6 channels
Channel positions : Front: L C R, Side: L R, LFE
Sampling rate : 48.0 kHz
Frame rate : 187.500 FPS (256 spf)
Compression mode : Lossy
Stream size : 209 MiB (5%)
Title : Original
Language : English
Service kind : Complete Main
Default : No
Forced : No

Text #1
ID : 4
Format : UTF-8
Codec ID : S_TEXT/UTF8
Codec ID/Info : UTF-8 Plain Text
Title : Original
Language : English
Default : No
Forced : No

Text #2
ID : 5
Format : UTF-8
Codec ID : S_TEXT/UTF8
Codec ID/Info : UTF-8 Plain Text
Title : Original (SDH)
Language : English
Default : No
Forced : No
Скріншоти





















1080p: S01 | S02 | S03 | S04 | S05 |

720p: S01 | S02 | S03 | S04 | S05 |

: S01 | S02 | S03 | S04 | S05 |



Джерело: &
Подяки:
За запис slavik_v_z , BILko, РОМЕО, woxeloid.
За синхронізацію slavik_v_z , BILko.
За постер Gashik.
Також панові: Dark Invader та іншим.
Особиста оцінка: 10 - без зайвих вагань рекомендую всім!


Бронзовий реліз (на рейтинг впливає 75% завантаженого)
 Трекер:    Зареєстрований   

Завантажити / скачати серіал українською



відео для новачків



 Зареєстрований:   2017-09-12 17:32
 Розмір:   77.78 GB 
 Оцінка серіалу:   3/10 (Голосів: 13)
   
bot 
робот


З нами з: 30.09.07
Востаннє: 26.05.05
Повідомлень: 17578

2017-09-12 17:32  
Тему перенесено з Анонси релізів до форуму Серіали в HD


Pegass

Anonymous 







2017-09-20 19:45  
Pegass написано:
 Оцінка серіалу:   2.4/10 (Голосів: 12)

Ого! То хто таку низьку оцінку вліпив? Кому не подобається серіал, то гуляйте лісом.

Neytreenor 
Відео Гуртом - запис з ТБ
Відео Гуртом - запис з ТБ


З нами з: 03.04.11
Востаннє: 20.09.17
Повідомлень: 703

2017-09-20 20:00  
Anonymous написано:
Ого! То хто таку низьку оцінку вліпив? Кому не подобається серіал, то гуляйте лісом.

Спокійно, то ботовод, якому не подобається толока. Серіал тут ні до чого.

EvGaS 
Відео Гуртом - субтитрування
Відео Гуртом - субтитрування


З нами з: 27.02.12
Востаннє: 20.09.17
Повідомлень: 3815

2017-09-20 20:17  
Anonymous написано:
Ого! То хто таку низьку оцінку вліпив? Кому не подобається серіал, то гуляйте лісом.

Це традиція «10 ботів по 1-му балу».
Якщо цей прокльон з релізом не стався, то існує повір’я, що торрент качатиме удвічі повільніше.
А так — злі духи інтернету краще кочегарять і підганяють байти по дротах.

Ваш часовий пояс: GMT + 2 Години

Нова тема   Відповісти