Диво-жінка / Wonder Woman (2017) Remux 1080p Ukr/Eng | Sub Eng

Нові коментарі

Нова тема   Відповісти
Автор Повідомлення
IronBee 
Свій


З нами з: 08.02.10
Востаннє: 18.12.17
Повідомлень: 91

2017-09-10 18:31  
Диво-жінка / Wonder Woman (2017) Remux 1080p Ukr/Eng | Sub Eng

Диво-жінка / Wonder Woman (2017) Remux 1080p Ukr/Eng | Sub Eng


Жанр: фантастика, фентезі, бойовик, пригоди
Країна: США



Кінокомпанія: Warner Bros. Pictures, DC Entertainment
Режисер: Петті Дженкінс / Patty Jenkins
Актори: Ґал Ґадот / Gal Gadot, Робін Райт / Robin Wright, Кріс Пайн / Chris Pine, Конні Нільсен / Connie Nielsen, Девід Тьюліс / David Thewlis, Елена Аная / Elena Anaya, Люсі Девіс / Lucy Davis, Денні Г'юстон / Danny Huston та інші

Сюжет:
Перед тим, як стати Диво-Жінкою, вона була Діаною - принцесою амазонок, навченою бути непереможним воїном. Та одного разу біля берегів відокремленого від зовнішнього світу райського острову, який був її батьківщиною, зазнає катастрофи американський пілот. Він розказує Діані про серйозний конфлікт, який вирує у світі. Принцеса амазонок вирішує залишити свій дім, щоб впоратись із загрозою. І там, б'ючись пліч-о-пліч з людиною у війні за мир, Діана дізнається про своє істинне призначення.


Тривалість: 02:21:16
Якість: Remux
Відео:
кодек:
розмір кадру: 1920 х 1080
бітрейт: 20,9 Mб/с

Аудіо # 1: Itunes
мова: українська ( Postmodern )
переклад: професійний дубльований
кодек: 2.0
бітрейт: 192 кб/с

Аудіо # 2:
мова: англійська
переклад: оригінал
кодек: -HD 7.1
бітрейт: 3696 кб/с

Субтитри:
мова: українська (форсовані)
тип: пререндерні
формат: *.PGS

Субтитри:
мова: англійська
тип: пререндерні
формат: *.PGS
Info
General
Unique ID : 187918001041055262133379474735442793361 (0x8D5FB0C6898095839D4C135FB5019391)
Complete name : E:\Films\Диво-жінка Wonder Woman (2017) Remux 1080p UkrEng Sub Eng[Hurtom].
Format :
Format version : Version 4 / Version 2
File size : 24.5 GiB
Duration : 2 h 21 min
Overall bit rate mode : Variable
Overall bit rate : 24.8 Mb/s
Encoded date : UTC 2017-09-10 15:12:18
Writing application : mkvmerge v15.0.0 ('Duel with the Devil') 64-bit
Writing library : libebml v1.3.5 + libmatroska v1.4.5

Video
ID : 1
Format : AVC
Format/Info : Advanced Video Codec
Format profile : [email protected]
Format settings, CABAC : Yes
Format settings, ReFrames : 4 frames
Codec ID : V_MPEG4/ISO/AVC
Duration : 2 h 21 min
Bit rate mode : Variable
Bit rate : 20.9 Mb/s
Maximum bit rate : 30.0 Mb/s
Width : 1 920 pixels
Height : 1 080 pixels
Display aspect ratio : 16:9
Frame rate mode : Constant
Frame rate : 23.976 (24000/1001) FPS
Color space : YUV
Chroma subsampling : 4:2:0
Bit depth : 8 bits
Scan type : Progressive
Bits/(Pixel*Frame) : 0.421
Stream size : 20.7 GiB (84%)
Default : Yes
Forced : No

Audio #1
ID : 2
Format : AC-3
Format/Info : Audio Coding 3
Format profile : Dolby Digital
Mode extension : CM (complete main)
Format settings, Endianness : Big
Codec ID : A_AC3
Duration : 2 h 21 min
Bit rate mode : Constant
Bit rate : 192 kb/s
Channel(s) : 2 channels
Channel positions : Front: L R
Sampling rate : 48.0 kHz
Frame rate : 31.250 FPS (1536 spf)
Bit depth : 16 bits
Compression mode : Lossy
Stream size : 194 MiB (1%)
Language : Ukrainian
Default : Yes
Forced : No

Audio #2
ID : 3
Format :
Format/Info : Digital Theater Systems
Format profile : MA / Core
Mode : 16
Format settings, Endianness : Big
Codec ID : A_DTS
Duration : 2 h 21 min
Bit rate mode : Variable / Constant
Bit rate : 3 696 kb/s / 1 509 kb/s
Channel(s) : 8 channels / 6 channels
Channel positions : Front: L C R, Side: L R, Back: L R, LFE / Front: L C R, Side: L R, LFE
Sampling rate : 48.0 kHz
Frame rate : 93.750 FPS (512 spf)
Bit depth : 24 bits
Compression mode : Lossless / Lossy
Stream size : 3.65 GiB (15%)
Language : English
Default : No
Forced : No

Text #1
ID : 4
Format : PGS
Muxing mode : zlib
Codec ID : S_HDMV/PGS
Codec ID/Info : Picture based subtitle format used on BDs/HD-DVDs
Duration : 2 h 8 min
Bit rate : 709 b/s
Count of elements : 48
Stream size : 669 KiB (0%)
Language : Ukrainian
Default : Yes
Forced : No

Text #2
ID : 5
Format : PGS
Muxing mode : zlib
Codec ID : S_HDMV/PGS
Codec ID/Info : Picture based subtitle format used on BDs/HD-DVDs
Duration : 2 h 20 min
Bit rate : 31.4 kb/s
Count of elements : 3654
Stream size : 31.5 MiB (0%)
Language : English
Default : No
Forced : No
Скріншоти



Джерело: &
Особиста оцінка: 10 - без зайвих вагань рекомендую всім!


Золотий реліз (завантажене не впливає на рейтинг)
 Трекер:    Зареєстрований   

Завантажити / скачати фільм українською



відео для новачків



 Зареєстрований:   2017-09-10 18:31
 Розмір:   24.52 GB 
 Оцінка фільму:   8.5/10 (Голосів: 30)
   
Інші релізи
   Диво-жінка / Wonder Woman (2017) 720p-mini (60 fps) Drool  14 / 0   5.69 GB   2017-10-04 12:16 
   Диво-жінка / Wonder Woman (2017) 1080p 3D [Half SideBySide] Ukr/Eng | Sub Eng Yarik73  15 / 0   10.08 GB   2017-09-14 21:08 
   Диво-жінка / Wonder Woman (2017) igor911  176 / 0   1.93 GB   2017-09-09 10:32 
   Диво-жінка / Wonder Woman (2017) AVC Ukr/Eng | Sub Eng 11FrYkT  75 / 0   2.86 GB   2017-09-09 10:20 
   Диво-жінка / Wonder Woman (2017) 1080p Ukr/Eng | Sub Eng igor911  65 / 0   12.53 GB   2017-09-08 18:07 
   Диво-жінка / Wonder Woman (2017) 720p Ukr/Eng | Sub Eng 11FrYkT  81 / 1   6.46 GB   2017-09-08 06:00 
Audioholic 
Новенький


З нами з: 08.05.15
Востаннє: 18.12.17
Повідомлень: 4

2017-09-26 10:14  
Вчора переглянув цей фільм з оригінальною доріжкою у форматі Dolby TrueHD. Непогана історія за коміксами Марвел. Порівнював звучання з ліцензійним дубляжем російською в Dolby Digital 5.1. Останній за якістю відтворення атмосфери фільму сильно поступається оригіналу. Але, на жаль, звукова доріжка в форматі 2,0 стерео ніколи не зможе навіть наблизитись до 5.1 версії та передати всієї краси саунтреку. Це як слухати симфонічний оркестр не в залі філармонії, а вдома на радіоточці.

Будь-ласочка, зробіть український дубляж принаймі в Dolby Digital 5.1

igor911 
Відео Гуртом
Відео Гуртом


З нами з: 18.01.08
Востаннє: 18.12.17
Повідомлень: 8521

2017-09-26 11:02  
Audioholic написано:
Будь-ласочка, зробіть український дубляж принаймі в Dolby Digital 5.1

питання дещо не за адресою, пиши прохання правовласникам - Warner Brothers, щоб вони додавали вже готовий український кінотеатральний дубляж 5.1 на фізичні носії до своїх фільмів.
А щоб зробити більш-менш якісний 5.1 з цієї доріжки треба вирізати кожну репліку дубляжу і накладати на центр оригіналу, почистити бічні канали від відлуння англійських діалогів, при чому це має робити профі, щоб врахувати ще безліч нюансів, це дуже тривала та кропітка робота не на один день.

Додано через 6 хвилин 13 секунд:

Audioholic написано:
е як слухати симфонічний оркестр не в залі філармонії, а вдома на радіоточці.

філармонія для кіно називається "кінотеатром", наразі, лише там 100% можеш насолодитися 5.1 для фільмів ворнерів

[Captain] 
VIP


З нами з: 18.02.12
Востаннє: 18.12.17
Повідомлень: 1871

2017-09-26 13:36  
фільми ж створюють для того, щоб їх купляли, а не качали тут. в україні ніхто диски не купує (вважають усі що це застарілі носії, хахаха, чомусь продвинуті американці купують), от і результат
igor911 
Відео Гуртом
Відео Гуртом


З нами з: 18.01.08
Востаннє: 18.12.17
Повідомлень: 8521

2017-09-26 13:43  
[Captain] написано:
от і результат

Але ж в нас продається повно дисків з російською доріжкою і без української, тому справа також і в законодавчому захисті прав українців отримувати товар (в даному випадку відеопродукцію) державною мовою. Сподіваюсь, що прийняття законопроекту про мову 5670-д покращить ситуацію і в цій сфері.

Keikato 
Новенький


З нами з: 17.11.13
Востаннє: 13.12.17
Повідомлень: 15

2017-09-28 07:25  
Audioholic написано:
Непогана історія за коміксами Марвел.

Коміксами марвел.......Коміксами марвел Cry (2) Cry (2) Cry (2)

[email protected] 
Частий відвідувач


З нами з: 05.02.15
Востаннє: 17.12.17
Повідомлень: 44

2017-10-03 11:23  
DC! Це ж зовсім різні Всесвіти)
Nemmezis 
Новенький


З нами з: 11.08.17
Востаннє: 18.12.17
Повідомлень: 18

2017-10-05 19:40  
Якість чудова, однак фільм не "прокачав" ... Дуже все наївно та передбачено, нажаль. Зарано ще Dc тягатись із Марвел (моя особлива думка).
Uberwinder 
Поважний учасник


З нами з: 18.11.16
Востаннє: 18.12.17
Повідомлень: 166

2017-11-30 07:05  
Залишилось зняти щось на кшалт "Ліга гендерної справедливості. Диво-жінка проти Залізної людини"...
Ваш часовий пояс: GMT + 2 Години

Нова тема   Відповісти