Чужий: Заповіт / Alien: Covenant (2017) / 1080p [Hybrid IMAX Edition] Ukr/Eng | Sub Ukr/Eng

Нові коментарі

Нова тема   Відповісти
Автор Повідомлення
zoomymba2012 
Поважний учасник


З нами з: 08.01.15
Востаннє: 16.12.17
Повідомлень: 171

2017-09-09 11:03  
Чужий: Заповіт / Alien: Covenant (2017) / 1080p [Hybrid IMAX Edition] Ukr/Eng | Sub Ukr/Eng

Чужий: Заповіт / Alien: Covenant (2017) / 1080p [Hybrid IMAX Edition] Ukr/Eng | Sub Ukr/Eng


Жанр: жахи, фантастика, трилер
Країна: США, Велика Британія, Австралія, Нова Зеландія, Канада



Кінокомпанія: 20th Century Fox, Scott Free Productions, TSG Entertainment, Brandywine Productions, Moving Picture Company
Режисер: Рідлі Скотт / Ridley Scott
Актори: Майкл Фассбендер / Michael Fassbender, Кетрін Вотерстон / Katherine Waterston, Біллі Крудап / Billy Crudup, Денні МакБрайд / Danny McBride, Деміан Бішир / Demián Bichir, Кармен Еджоґо / Carmen Ejogo, Джуссі Смоллетт / Jussie Smollett, Каллі Ернандес / Callie Hernandez, Емі Саймец / Amy Seimetz, Бенджамін Рігбі / Benjamin Rigby, Натаніель Дін / Nathaniel Dean, Джеймс Франко / James Franco, Ґай Пірс / Guy Pearce та інші

Сюжет:
Команда колоніального корабля "Заповіт" зробила посадку на дуже далеку планету маловідомого куточку галактики. Багато в чому це можна назвати другою Землею, адже там навіть ростуть наші рослини. "Заповіт" ніби знайшов рай за межами нашої планети. Згодом команда розуміє те, що вони не в раю... Це стане для них справжнім пеклом, з незвіданим світом, де єдиним жителем є андроїд на ім'я Девід, єдиний вцілилий з приреченої експедиції "Прометей". Але чи один він залишався на таємничій планеті?


Рейтинг MPAA: R - особам до 17 років обов'язкова присутність батьків або дорослого опікуна
Вікова категорія: 16+

Тривалість: 02:02:03
Якість: гібрид та Open Mate
Відео:
кодек:
розмір кадру: 1920 х 1080
бітрейт: 13,5 Мб/с
примітка:
Цитата:
Джерело IMAX сцен - Open Matte. IMAX Edition версія фільму має повніше наповнення кадру в порівнянні з блурей-версією ЛИШЕ в IMAX сценах, решта тривалості фільму має співвідношення 2.35:1, джерело - Blu-Ray.


Аудіо # 1:
мова: українська
переклад: професійний дубльований
кодек: 5.1
бітрейт: 448 кб/с

Аудіо # 2:
мова: англійська
переклад: оригінал
кодек: 5.1
бітрейт: 1509 кб/с

Субтитри # 1:
мова: українська
тип: пререндерні
формат: PGS

Субтитри # 2-4:
мова: англійська (повні, SDH)
тип: програмні (м'які)
формат: *.srt
Standart vs IMAX сцени


Скріншоти
Info
General
Unique ID : 186997279070219420752948553196694842715 (0x8CAE5DAD758D8FD7A478824632CEAD5B)
Complete name : Alien Covenant (2017) [Ukr, Eng] 1080p [IMAX Edition].
Format :
Format version : Version 4 / Version 2
File size : 13.2 GiB
Duration : 2 h 2 min
Overall bit rate mode : Variable
Overall bit rate : 15.5 Mb/s
Encoded date : UTC 2017-09-09 07:00:10
Writing application : mkvmerge v13.0.0 ('The Juggler') 64bit
Writing library : libebml v1.3.4 + libmatroska v1.4.5
Attachments : 1_1_chapter.txt

Video
ID : 1
Format : AVC
Format/Info : Advanced Video Codec
Format profile : [email protected]
Format settings, CABAC : Yes
Format settings, ReFrames : 4 frames
Codec ID : V_MPEG4/ISO/AVC
Duration : 2 h 2 min
Bit rate mode : Variable
Bit rate : 13.5 Mb/s
Maximum bit rate : 40.0 Mb/s
Width : 1 920 pixels
Height : 1 080 pixels
Display aspect ratio : 16:9
Frame rate mode : Constant
Frame rate : 23.976 (24000/1001) FPS
Color space : YUV
Chroma subsampling : 4:2:0
Bit depth : 8 bits
Scan type : Progressive
Bits/(Pixel*Frame) : 0.272
Stream size : 11.5 GiB (87%)
Language : English
Default : Yes
Forced : No
Color range : Limited
Color primaries : BT.709
Transfer characteristics : BT.709
Matrix coefficients : BT.709

Audio #1
ID : 1
Format : AC-3
Format/Info : Audio Coding 3
Mode extension : CM (complete main)
Format settings, Endianness : Big
Codec ID : A_AC3
Duration : 2 h 2 min
Bit rate mode : Constant
Bit rate : 448 kb/s
Channel(s) : 6 channels
Channel positions : Front: L C R, Side: L R, LFE
Sampling rate : 48.0 kHz
Frame rate : 31.250 FPS (1536 spf)
Bit depth : 16 bits
Compression mode : Lossy
Stream size : 391 MiB (3%)
Language : Ukrainian
Default : No
Forced : No

Audio #2
ID : 2
Format :
Format/Info : Digital Theater Systems
Format profile : ES Matrix / Core
Mode : 16
Format settings, Endianness : Big
Codec ID : A_DTS
Duration : 2 h 2 min
Bit rate mode : Constant
Bit rate : 1 509 kb/s
Channel(s) : 7 channels / 6 channels
Channel positions : Front: L C R, Side: L R, Back: C, LFE / Front: L C R, Side: L R, LFE
Sampling rate : 48.0 kHz
Frame rate : 93.750 FPS (512 spf)
Bit depth : 24 bits
Compression mode : Lossy
Stream size : 1.29 GiB (10%)
Language : English
Default : No
Forced : No

Text #1
ID : 3
Format : PGS
Muxing mode : zlib
Codec ID : S_HDMV/PGS
Codec ID/Info : Picture based subtitle format used on BDs/HD-DVDs
Duration : 2 h 0 min
Bit rate : 26.5 kb/s
Count of elements : 2686
Stream size : 22.9 MiB (0%)
Language : Ukrainian
Default : No
Forced : No

Text #2
ID : 4
Format : UTF-8
Codec ID : S_TEXT/UTF8
Codec ID/Info : UTF-8 Plain Text
Duration : 1 h 54 min
Bit rate : 44 b/s
Count of elements : 1451
Stream size : 36.8 KiB (0%)
Language : English
Default : No
Forced : No

Text #3
ID : 5
Format : UTF-8
Codec ID : S_TEXT/UTF8
Codec ID/Info : UTF-8 Plain Text
Duration : 1 h 54 min
Bit rate : 52 b/s
Count of elements : 1709
Stream size : 44.3 KiB (0%)
Language : English
Default : No
Forced : No

Text #4
ID : 6
Format : UTF-8
Codec ID : S_TEXT/UTF8
Codec ID/Info : UTF-8 Plain Text
Duration : 1 h 54 min
Bit rate : 75 b/s
Count of elements : 1709
Stream size : 63.5 KiB (0%)
Language : English
Default : No
Forced : No
Джерело: &
Особиста оцінка: 8 - мені сподобалося


 Трекер:    Зареєстрований   

Завантажити / скачати фільм українською



відео для новачків



 Зареєстрований:   2017-09-09 11:03
 Розмір:   13.2 GB 
 Оцінка фільму:   7.7/10 (Голосів: 14)
   
igor911 
Відео Гуртом
Відео Гуртом


З нами з: 18.01.08
Востаннє: 16.12.17
Повідомлень: 8512

2017-09-09 21:41  
Додав в назву "/ 1080p [Hybrid IMAX Edition]", примітку до відеоряду, яку релізер чомусь не вказав, виправив формат українських субтитрів.
порівняння скріншотів наповнення та якості блурей/IMAX: http://screenshotcomparison.com/comparison/116799

MrRyanCooper 
VIP


З нами з: 23.08.12
Востаннє: 16.12.17
Повідомлень: 393

2017-09-10 12:32  
Картинка начебто гуд. Хоть таке, якщо вже повного 16:9 немає.
Надіюсь і 720р-mini буде.
А ще - так і не зрозумів, як чужі з'явилися. Девід накидав по населенню білих людей оті вази з жижею і потім з них повилазили чужі? А хто ж у Прометеї нападав? На голограмі показували, що за творцями ганялося щось і вони тікали. Та і взагалі чим жижа з ваз відрізняється від тої субстанції, яка залізла чуваку в вухо, а потім ще одному в ніс? І ще я розумію вони просто з яєць можуть плодитися, не тільки з людей вилазить.

Pohikerd 
Частий відвідувач


З нами з: 01.08.15
Востаннє: 30.11.17
Повідомлень: 29

2017-09-14 21:39  
MrRyanCooper, ну чужі просто мають змогу і з яєць лупитися, але то швише всього перша стадія, то ті, що з лапами наче багатоніжки і за лице хапають - фейсхаггери, а потім відкладають яйця в людей і тоді вже чужий родиться. Тіки в Прометеї я не в'їхав - з Елізабет (витягла вона аппаратом з себе) вилізло щось незрозуміле. І взагалі-то Девід розповів, що він експериментував і створив Чужого. До того моменту Чужого я так розумію не існувало. Тим не менш, постає питання: якщо Девід створив яйця Чужих, то як вони могли опинитися на кораблі ТВОРЦІВ в оригінальному фільмі 1986 року? Елен Ріплі і команда Ностромо знайшли кладку Чужих в кораблі прибульців на планеті LV-426 через двадцять років після подій фильму «Чужий: Заповіт». Але той корабель пролежав там набагато більше, про це казалось в оригінальному фільмі. До того ж, Чужі з «Заповіту» візуально дещо відрізняются від істоти з «Чужого».
bandera21 
Свій


З нами з: 10.11.12
Востаннє: 16.12.17
Повідомлень: 82

2017-09-28 23:41  
Я так і не зрозумів, він її поклав в кінці на сон, але чому вона там так кричала щоб він її пустив я не зрозумів кінець взагалі!
zoomymba2012 
Поважний учасник


З нами з: 08.01.15
Востаннє: 16.12.17
Повідомлень: 171

2017-10-02 16:49  
bandera21
Ти забув що трапилось з Елізабет Шоу?

vash1 
Свій


З нами з: 16.03.16
Востаннє: 16.12.17
Повідомлень: 91

2017-10-29 19:56  
igor911 написано:
порівняння скріншотів наповнення та якості блурей/IMAX: http://screenshotcomparison.com/comparison/116799


Супер! це перше про що я подумав прочитавши опис

Цитата:
Джерело IMAX сцен - Open Matte. IMAX Edition версія фільму має повніше наповнення кадру в порівнянні з блурей-версією ЛИШЕ в IMAX сценах, решта тривалості фільму має співвідношення 2.35:1, джерело - Blu-Ray.

Ваш часовий пояс: GMT + 2 Години

Нова тема   Відповісти