Юрко Юрченко - Я йду (1998) [FLAC] | Pop

Нові коментарі

Нова тема   Відповісти
Автор Повідомлення
ultramode84 
Новенький


З нами з: 05.03.15
Востаннє: 19.11.17
Повідомлень: 14

2017-09-05 13:54  
Юрко Юрченко - Я йду (1998) [FLAC] | Pop

Юрко Юрченко - Я йду (1998) [FLAC] | Pop


Стиль: Pop
Країна, місто: Україна, Майдан-Олександрівський
Сайти: Офіційний сайт
Видавець: NAC
Виконавці:
Юрко Юрченко - вокал
Пісні:
    01 - В пустелі диких снів
    02 - Я йду
    03 - Така наша любов
    04 - Відпусти
    05 - Прощавай
    06 - Продана любов
    07 - Анжеліка
    08 - Казка для двох
    09 - Зима
    10 - Намалюй
log

Exact Audio Copy V1.0 beta 3 from 29. August 2011

EAC extraction logfile from 5. September 2017, 14:18

Юрко Юрченко / Я Йду

Used drive : PIONEER DVD-RW DVR-220L Adapter: 0 ID: 0

Read mode : Secure
Utilize accurate stream : Yes
Defeat audio cache : Yes
Make use of C2 pointers : No

Read offset correction : 6
Overread into Lead-In and Lead-Out : No
Fill up missing offset samples with silence : Yes
Delete leading and trailing silent blocks : No
Null samples used in CRC calculations : Yes
Used interface : Native Win32 interface for Win NT & 2000
Gap handling : Appended to previous track

Used output format : User Defined Encoder
Selected bitrate : 128 kBit/s
Quality : High
Add ID3 tag : No
Command line compressor : C:\Program Files (x86)\Exact Audio Copy\Flac\flac.exe
Additional command line options : -V -8 -T "Genre=%genre%" -T "Artist=%artist%" -T "Title=%title%" -T "Album=%albumtitle%" -T "Date=%year%" -T "Tracknumber=%tracknr%" -T "Comment=%comment%" %hascover%--picture="%coverfile%"%hascover% %source%

TOC of the extracted CD

Track | Start | Length | Start sector | End sector
---------------------------------------------------------
1 | 0:00.01 | 4:28.41 | 1 | 20141
2 | 4:28.42 | 3:38.09 | 20142 | 36500
3 | 8:06.51 | 3:55.23 | 36501 | 54148
4 | 12:01.74 | 3:47.29 | 54149 | 71202
5 | 15:49.28 | 4:15.22 | 71203 | 90349
6 | 20:04.50 | 3:46.09 | 90350 | 107308
7 | 23:50.59 | 5:31.73 | 107309 | 132206
8 | 29:22.57 | 5:36.15 | 132207 | 157421
9 | 34:58.72 | 4:02.01 | 157422 | 175572
10 | 39:00.73 | 3:23.60 | 175573 | 190857

Track 1

Filename E:\Юрко Юрченко - 1998 - Я Йду\01 - В Пустелі Диких Снів.wav

Pre-gap length 0:00:02.01

Peak level 99.6 %
Extraction speed 3.8 X
Track quality 99.9 %
Test CRC E4731E7C
Copy CRC E4731E7C
Track not present in AccurateRip database
Copy OK

Track 2

Filename E:\Юрко Юрченко - 1998 - Я Йду\02 - Я Йду.wav

Peak level 97.4 %
Extraction speed 4.0 X
Track quality 99.9 %
Test CRC C68C9185
Copy CRC C68C9185
Track not present in AccurateRip database
Copy OK

Track 3

Filename E:\Юрко Юрченко - 1998 - Я Йду\03 - Така Наша Любов.wav

Peak level 100.0 %
Extraction speed 4.9 X
Track quality 100.0 %
Test CRC 43903ED9
Copy CRC 43903ED9
Track not present in AccurateRip database
Copy OK

Track 4

Filename E:\Юрко Юрченко - 1998 - Я Йду\04 - Відпусти.wav

Peak level 76.1 %
Extraction speed 4.7 X
Track quality 99.9 %
Test CRC 5D738FB7
Copy CRC 5D738FB7
Track not present in AccurateRip database
Copy OK

Track 5

Filename E:\Юрко Юрченко - 1998 - Я Йду\05 - Прощавай.wav

Peak level 95.7 %
Extraction speed 5.1 X
Track quality 99.9 %
Test CRC C39CA04B
Copy CRC C39CA04B
Track not present in AccurateRip database
Copy OK

Track 6

Filename E:\Юрко Юрченко - 1998 - Я Йду\06 - Продана Любов.wav

Peak level 83.0 %
Extraction speed 5.3 X
Track quality 99.9 %
Test CRC F1F15593
Copy CRC F1F15593
Track not present in AccurateRip database
Copy OK

Track 7

Filename E:\Юрко Юрченко - 1998 - Я Йду\07 - Анжеліка.wav

Peak level 73.9 %
Extraction speed 6.1 X
Track quality 99.9 %
Test CRC E9EA7D15
Copy CRC E9EA7D15
Track not present in AccurateRip database
Copy OK

Track 8

Filename E:\Юрко Юрченко - 1998 - Я Йду\08 - Казка Для Двох.wav

Peak level 89.8 %
Extraction speed 7.0 X
Track quality 100.0 %
Test CRC AFDDDBDC
Copy CRC AFDDDBDC
Track not present in AccurateRip database
Copy OK

Track 9

Filename E:\Юрко Юрченко - 1998 - Я Йду\09 - Зима.wav

Peak level 100.0 %
Extraction speed 6.2 X
Track quality 99.9 %
Test CRC DC8C3452
Copy CRC DC8C3452
Track not present in AccurateRip database
Copy OK

Track 10

Filename E:\Юрко Юрченко - 1998 - Я Йду\10 - Намалюй.wav

Peak level 98.6 %
Extraction speed 7.2 X
Track quality 100.0 %
Test CRC 14E632FA
Copy CRC 14E632FA
Track not present in AccurateRip database
Copy OK

None of the tracks are present in the AccurateRip database

No errors occurred

End of status report

---- CUETools DB Plugin V2.1.4

[CTDB TOCID: 8ixpqoXXhRqSMvJbrV95F8OjSZE-] disk not present in database
Submit result: 8ixpqoXXhRqSMvJbrV95F8OjSZE- has been uploaded

==== Log checksum 596A81280D27C2574CE3118DA89B80787CE37162EFFEDB7BA0A8A6B18072B5CF ====
TauAnalyzer


Тривалість: 00:42:21
Мова: українська
Аудіо-кодек: FLAC
Бітрейт: ~ 937 кб/с
Джерело: власний компакт-диск
Додаткова інформація:
Юрко Юрченко (справжнє ім'я — Юрій Володимирович Нечистяк; * 24 листопада 1972, Майдан-Олександрівський, Віньковецький район, Хмельницька область) — український співак, композитор, лідер гурту "Юркеш". Заслужений артист України (2009).
Музикою займається з 5 років.
З 1979 Юрій був вокалістом та іоністом (клавішні інструменти) гурту «Мріяни». Гурт навіть брав участь у «Сонячних кларнетах»-(популярна у 80-х телепрограма на УТ-1.)
В період з 1987–1989 років навчався в Барському педагогічному училищі, де створив перший рок-гурт «Імпульс». У 1989 році за власним бажанням Юрій залишив пед-училище і закінчивши екстерном загально-освітню школу вступає до Вінницького Державного Педагогічного інституту. Під час навчання у Вінниці Юрій створив рок-гурт «Нечиста сила», де в чому схожий по звучанню на сьогоднішній «Юркеш».
У 1995 році Юрій Нечистяк став лауреатом Всеукраїнських та Міжнародних фестивалів «Червона Рута», Міжнародного конкурсу молодих виконавців ім. В.Івасюка, «Золотий тік», «Пані+Пан».
У 1996 році на фестивалі «Море друзів» у Ялті Юрій Нечистяк знайомиться із керівником мистецької агенції «Територія А», поетом Бригинцем Олександрем Михайловичем — так розпочався проект «Юрко Юрченко». Продумана реклама-розкрутка, коли кожна нова пісня підкріплювалася відеокліпом («Я йду», «Відпусти», «Така наша любов», «В пустелі диких снів», «Анжеліка», «Пісня про Київ»), плюс офіційні визнання в конкурсах (перше місце в «Перлинах сезону — 96») зробили його найпопулярнішим співаком України серед тінейджерів.
У 1997 році на фестивалі «Таврійські Ігри» Юрченко здобув премію «Золота Жар-птиця» в номінації «Відкриття року». В кінці літа вийшов перший і єдиний касетний альбом Юрка Юрченка — «Я йду».
Зміна іміджу, репертуару та й взагалі повернення до стилю більш притаманного йому до того як він став Юрченком, призвели до того, що запис другого альбому «Ніч триває», вихід якого планувався на літо 1998-го, сильно затягнувся. Стосунки з «Територією А» не склалися. І 1999–2000 роках вже як Юрій Юрченко він співпрацює з продюсерською агенцією земляка Олександра Пономарьова «З ранку до ночі». У цей час виходить максі-сингл «До наступної весни», а також однойменний відеокліп на цю ж пісню. Згодом — виїхав до Москви, де довгий час виступав у міських клубах, працював композитором та аранжувальником.
2000—2004 — творча пауза. Як жартує сам Юрій, після здобуття на фестивалі «Таврійські ігри» звання «Відкриття року-97», він має ще й звання «Закриття року-2000». Також у 2000 році Юрій Юрченко закінчив аспірантуру КНУКІМ (Київського Національного Університету культури і мистецтв).
За власним бажанням Юрій відмовився використовувати імідж та репертуар Юрка Юрченка і після повернення, в кінці 2004 року з Москви створює і очолює гурт Юркеш. Це повністю жива група з шістьох учасників, з духовою секцією, ударними, словом — у повному споряді. Стиль новоутвореної співучої одиниці Юрій Юрченко окреслює просто: «інтелектуально-інтелігентний панк-рок з Елементами, гумор та сатира».
Перший вихід в люди Юркеша — в межах Всеукраїнського відбіркового конкурсу для участі в «Євробаченні-2005» на УТ1.
Пісні Юрія Юрченка виконують Філіп Кіркоров, гурт «Неангели", Андрій Данилко (Вєрка Сердючка), Лоліта, Ольга Юнакова, Марина Одольська, Марія Яремчук, Віталій та Світлана Білоножко, Андрій Князь та Катя Бойко.
У 2013 році пісня "Я", слова і музику до якої написав Юрій Юрченко, у виконані співачки Лоліти отримала диплом престижної премії «Золотой Граммофон» (Росія) та телевізійного фестивалю «Песня Года» (Росія).А 2014-го через події на Донбасi Юрій повністю відмовився від гастролей. «Зізнаюся, у мене було багато запрошень також і з Росії. Я не погодився на жодне з них. І не тому, що крутий пацан, а тому, що просто не зміг би співати під час війни», — сказав Юрій в інтерв'ю.
Виконавець неодноразово бував у зоні АТО в українських бійців, аби підтримати їх бойовий дух.
У 2016 році на честь 20-річчя творчої діяльності "Юрка Юрченка" вийшов в світ сингл та однойменний відеокліп "100 секунд Vесни".
Дві пісні "Monster Song" та "I love you" написані Юрієм спеціально для шоу "Дім таємничих пригод", що з великим успіхом пройшло в м. Києві.
Одружений, має трьох дітей.


Якщо Ви справді бажаєте підтримати українське - після прослуховування, якщо музика вам сподобалась, придбайте ліцензійний диск. Підтримаймо вітчизняних виконавців!


Срібний реліз (на рейтинг впливає 50% завантаженого)
 Трекер:    Зареєстрований   

Завантажити / скачати українську музику



відео для новачків



 Зареєстрований:   2017-09-05 13:54
 Розмір:   290 MB 
 Оцінка музики:   9.7/10 (Голосів: 7)
   
ярий тверезенник 
Попереджень: 1
Попереджень: 1 


З нами з: 29.01.12
Востаннє: 24.11.17
Повідомлень: 1869

2017-09-06 08:36  
Дуже мало студії записують із старих касет альбоми на CD і ті багато зникають кудись...
Ваш часовий пояс: GMT + 2 Години

Нова тема   Відповісти