Екс-махіна / Ex Machina (2015) AVC 2хUkr/Eng | Sub Eng

Нові коментарі

Нова тема   Відповісти
Автор Повідомлення
sergiyko.5 
VIP


З нами з: 25.02.16
Востаннє: 19.09.17
Повідомлень: 1061

2017-09-05 11:34  
Екс-махіна / Ex Machina (2015) AVC 2хUkr/Eng | Sub Eng

Екс-махіна / Ex Machina (2015) AVC 2хUkr/Eng | Sub Eng

Жанр: драма, фантастика
Країна: Великобританія
Кінокомпанія: DNA Films, Film4
Режисер: Алекс Ґарленд / Alex Garland
Актори: Алісія Вікандер / Alicia Vikander, Донал Ґлісон / Domhnall Gleeson, Оскар Айзек / Oscar Isaac, Челсі Лі / Chelsea Li, Еві Рей / Evie Wray, Соноя Мізуно / Sonoya Mizuno, Корі Джонсон / Corey Johnson та інші

Сюжет:
Десь у недалекому майбутньому… Калеб працює програмістом у найбільшій в світі інтернет-компанії. Несподівано він стає переможцем конкурсу, де приз – тиждень у віддаленому гірському будиночку генерального директора. Але хлопець, ще не усвідомлює, що став частиною дивного і захопливого дослідження, в якому він повинен взаємодіяти з роботом у тілі прекрасної дівчини.



Тривалість: 01:48:00
Якість:

Відео: кодек: AVC/h264 розмір кадру: 1146x480 бітрейт: 2800 кб/с
Аудіо #1: мова: українська переклад: багатоголосий закадровий кодек: 2.0 бітрейт: 192 кб/с | Cine+ Hit HD |
Аудіо #2: мова: українська переклад: професійний дубльований кодек: 2.0 бітрейт: 192 кб/с | Mic (якісний) |
Аудіо #3: мова: англійська переклад: оригінал кодек: 5.1 бітрейт: 448 кб/с
Субтитри: мова: англійська тип: програмні (м'які) формат: *.srt

Примітка:
Питання - чому звук з трансляції шестиканальний, а в релізі двохканальний?
Відповідь - у порвняні скріншотів як виглядає англійська і українська доріжки:
Порівняння доріжок:

Про файл:
General
Unique ID : 215722104632005282777301273874758301037 (0xA24A90EBC76A7562BE7EE10B5CD6F56D)
Complete name : E:\FILMS\Ex.Machina.2015..Ukr.Eng.
Format :
Format version : Version 4 / Version 2
File size : 2.75 GiB
Duration : 1 h 48 min
Overall bit rate : 3 644 kb/s
Movie name : Ex Machina 2015 by sergiyko
Encoded date : UTC 2017-09-05 11:05:40
Writing application : mkvmerge v15.0.0 ('Duel with the Devil') 64-bit
Writing library : libebml v1.3.5 + libmatroska v1.4.5
Cover : Yes
Attachments : cover.jpeg

Video
ID : 1
Format : AVC
Format/Info : Advanced Video Codec
Format profile : [email protected]
Format settings, CABAC : Yes
Format settings, RefFrames : 14 frames
Codec ID : V_MPEG4/ISO/AVC
Duration : 1 h 48 min
Bit rate : 2 810 kb/s
Width : 1 146 pixels
Height : 480 pixels
Display aspect ratio : 2.40:1
Frame rate mode : Constant
Frame rate : 23.976 (24000/1001) FPS
Color space : YUV
Chroma subsampling : 4:2:0
Bit depth : 8 bits
Scan type : Progressive
Bits/(Pixel*Frame) : 0.213
Stream size : 2.12 GiB (77%)
Title : Ex Machina 2015
Writing library : core 146 r2538kMod 121396c
Encoding settings : cabac=1 / ref=14 / deblock=1:-3:-2 / analyse=0x3:0x133 / me=umh / subme=11 / psy=1 / fade_compensate=0.00 / psy_rd=1.00:0.00 / mixed_ref=1 / me_range=48 / chroma_me=1 / trellis=2 / 8x8dct=1 / cqm=0 / deadzone=21,11 / fast_pskip=0 / chroma_qp_offset=-2 / threads=6 / lookahead_threads=6 / sliced_threads=0 / nr=0 / decimate=1 / interlaced=0 / bluray_compat=0 / constrained_intra=0 / fgo=0 / bframes=16 / b_pyramid=2 / b_adapt=2 / b_bias=0 / direct=3 / weightb=1 / open_gop=0 / weightp=2 / keyint=240 / keyint_min=23 / scenecut=40 / intra_refresh=0 / rc_lookahead=60 / rc=crf / mbtree=0 / crf=17.6000 / qcomp=0.60 / qpmin=0 / qpmax=69 / qpstep=4 / vbv_maxrate=50000 / vbv_bufsize=62500 / crf_max=0.0 / nal_hrd=none / filler=0 / ip_ratio=1.40 / pb_ratio=1.30 / aq=1:1.10
Language : English
Default : Yes
Forced : No
Color range : Limited
Color primaries : BT.709
Transfer characteristics : BT.709
Matrix coefficients : BT.709

Audio #1
ID : 2
Format : AC-3
Format/Info : Audio Coding 3
Format settings, Endianness : Big
Codec ID : A_AC3
Duration : 1 h 48 min
Bit rate mode : Constant
Bit rate : 192 kb/s
Channel(s) : 2 channels
Channel positions : Front: L R
Sampling rate : 48.0 kHz
Frame rate : 31.250 FPS (1536 SPF)
Bit depth : 16 bits
Compression mode : Lossy
Stream size : 148 MiB (5%)
Title : MOV 2ch | AMC
Language : Ukrainian
Service kind : Complete Main
Default : Yes
Forced : Yes

Audio #2
ID : 3
Format : AC-3
Format/Info : Audio Coding 3
Format settings, Endianness : Big
Codec ID : A_AC3
Duration : 1 h 48 min
Bit rate mode : Constant
Bit rate : 192 kb/s
Channel(s) : 2 channels
Channel positions : Front: L R
Sampling rate : 48.0 kHz
Frame rate : 31.250 FPS (1536 SPF)
Bit depth : 16 bits
Compression mode : Lossy
Stream size : 148 MiB (5%)
Title : DUB 2ch | MIC
Language : Ukrainian
Service kind : Complete Main
Default : No
Forced : No

Audio #3
ID : 4
Format : AC-3
Format/Info : Audio Coding 3
Format settings, Endianness : Big
Codec ID : A_AC3
Duration : 1 h 48 min
Bit rate mode : Constant
Bit rate : 448 kb/s
Channel(s) : 6 channels
Channel positions : Front: L C R, Side: L R, LFE
Sampling rate : 48.0 kHz
Frame rate : 31.250 FPS (1536 SPF)
Bit depth : 16 bits
Compression mode : Lossy
Stream size : 346 MiB (12%)
Title : Original
Language : English
Service kind : Complete Main
Default : No
Forced : No

Text
ID : 5
Format : UTF-8
Codec ID : S_TEXT/UTF8
Codec ID/Info : UTF-8 Plain Text
Duration : 1 h 38 min
Bit rate : 48 b/s
Count of elements : 1248
Stream size : 34.7 KiB (0%)
Language : English
Default : No
Forced : No

Menu
00:00:00.000 : en:Chapter 1
00:04:34.941 : en:Chapter 2
00:11:16.634 : en:Chapter 3
00:15:08.157 : en:Chapter 4
00:23:38.750 : en:Chapter 5
00:31:57.999 : en:Chapter 6
00:36:05.162 : en:Chapter 7
00:40:26.757 : en:Chapter 8
00:45:56.378 : en:Chapter 9
00:53:28.955 : en:Chapter 10
01:00:26.080 : en:Chapter 11
01:04:01.254 : en:Chapter 12
01:07:19.076 : en:Chapter 13
01:13:22.022 : en:Chapter 14
01:16:56.111 : en:Chapter 15
01:21:36.516 : en:Chapter 16
01:27:36.834 : en:Chapter 17
01:32:54.151 : en:Chapter 18
01:38:51.008 : en:Chapter 19
01:42:26.932 : en:Credits
Скріншоти:


 Трекер:    Зареєстрований   

Завантажити / скачати фільм українською



відео для новачків



 Зареєстрований:   2017-09-05 14:12
 Розмір:   2.75 GB 
 Оцінка фільму:   8.7/10 (Голосів: 21)
   
Інші релізи
   Екс-махіна / Ex Machina (2015) 1080p Ukr(Mic)/Eng | Sub Ukr/Eng 11FrYkT  4 / 0   11.43 GB   2015-05-17 09:53 
   Екс-махіна / Ex Machina (2015) 720p Ukr(Mic)/Eng | Sub Ukr/Eng 11FrYkT  17 / 0   4.87 GB   2015-05-17 09:53 
   Екс-махіна / Ex Machina (2015) Ukr(Mic)/Eng patriot2305  26 / 0   1.46 GB   2015-05-17 09:53 
bot 
робот


З нами з: 30.09.07
Востаннє: 26.05.05
Повідомлень: 17574

2017-09-05 11:34  
Тему перенесено з Фільми до форуму Анонси релізів


sergiyko.5

bot 
робот


З нами з: 30.09.07
Востаннє: 26.05.05
Повідомлень: 17574

2017-09-05 14:12  
Тему перенесено з Анонси релізів до форуму Фільми


sergiyko.5

Sando7 
Відео Гуртом - запис з ТБ
Відео Гуртом - запис з ТБ


З нами з: 04.05.09
Востаннє: 19.09.17
Повідомлень: 908

2017-09-05 14:15  
Cine+ Hit HD а не АМС
leicheman 
Відео Гуртом - підтримка та поширення
Відео Гуртом - підтримка та поширення


З нами з: 03.07.14
Востаннє: 19.09.17
Повідомлень: 1180

2017-09-05 14:20  
sergiyko.5 написано:

Питання - чому звук з трансляції шестиканальний, а в релізі двохканальний?
Відповідь - у порвняні скріншотів як виглядає англійська і українська доріжки:

більшість ж не зрозуміє, було б простіше написати просто, що там не справжнє 5.1 і все.

11FrYkT 
Модератор відео


З нами з: 20.02.11
Востаннє: 19.09.17
Повідомлень: 3892

2017-09-05 15:24  
sergiyko.5 , опишіть субтитри в заголовку і в темі
EvGaS 
Відео Гуртом - субтитрування
Відео Гуртом - субтитрування


З нами з: 27.02.12
Востаннє: 19.09.17
Повідомлень: 3792

2017-09-06 00:11  
Якщо чесно — кіно облом.
Хоча й здивувало типу серйозністю, гадав що буде щось як завжди таке веселеньке та яскравеньке, як зазвичай фантастики роблять.

Враження від перегляду негативні. Хотіли зробити класний типу розумний оберт, а вийшов якийсь тупняк.

Якщо хочете подивитись кіно на подібну тематику, то 200-річна людина буде куди кращою за нього: менше спецефектів, більше гри акторів та сенсу.

https://toloka.to/t80485

Electroz 
Відео Гуртом - підтримка та поширення
Відео Гуртом - підтримка та поширення


З нами з: 18.09.14
Востаннє: 19.09.17
Повідомлень: 1567

2017-09-06 20:45  
sergiyko.5 написано:
Cine+ Hit HD

Назва фільму від студії: Із машини

sergiyko.5 
VIP


З нами з: 25.02.16
Востаннє: 19.09.17
Повідомлень: 1061

2017-09-06 21:11  
Electroz написано:
Назва фільму від студії: Із машини

То що, тепер озвучить 5 студій з окремою назвою і будемо фільми постійно перейминовувати!? Тупо. Деякі правила мають мати винятки.

mennas 
Новенький


З нами з: 04.05.17
Востаннє: 16.09.17
Повідомлень: 8

2017-09-07 00:39  
Фільм класний
добре продуманий сюжет. без гівна
толкова філософія

rebell 
Новенький


З нами з: 08.06.12
Востаннє: 19.09.17
Повідомлень: 5

2017-09-08 16:21  
sergiyko.5 написано:
То що, тепер озвучить 5 студій з окремою назвою і будемо фільми постійно перейминовувати!? Тупо. Деякі правила мають мати винятки.

Біда в тому, що теперішня назва неправильна.
Я за перейменування в "Із машини".

Ваш часовий пояс: GMT + 2 Години

Нова тема   Відповісти