Нікчемний я 3 / Despicable Me 3 (2017) 720p Ukr/Eng | Sub Eng

Нові коментарі

Нова тема   Відповісти
Автор Повідомлення
Anonymous 







2017-09-02 21:08  
Нікчемний я 3 / Despicable Me 3 (2017) 720p Ukr/Eng | Sub Eng

Нікчемний я 3 / Despicable Me 3 (2017) 720p Ukr/Eng | Sub Eng
Усі українські постери



















Жанр: анімація, фантастика, бойовик, комедія, пригодницький, сімейний
Країна: США



Кінокомпанія: Universal Pictures, Illumination Entertainment
Режисер: Кайл Балда / Kyle Balda, Пьєр Соффін / Pierre Coffin, Ерік Ґуільон / Eric Guillon
Актори: Стів Карелл / Steve Carell, Крістен Віґ / Kristen Wiig, Трей Паркер / Trey Parker, Міранда Косґров / Miranda Cosgrove, Дена Ґаєр / Dana Gaier, Нев Шаррел / Nev Scharrel, Джулі Ендрюс / Julie Andrews, Стів Куґан / Steve Coogan, Дженні Слейт / Jenny Slate, Пьєр Соффін / Pierre Coffin, Катя Сапоненко та інші

Сюжет:
У Ґру проблеми. Останню справу він не зміг виконати, тому його усунули від роботи. Поки численне сімейство залишилося без годувальника, колишній лиходій шукає якісь способи заробити грошви. Раптово у житті Ґру з'являється звісточка про те, що його в гості запрошує брат-близнюк Дрю, про якого він ніколи не чув. Той живе на власному острові в розкішному маєтку. Дрю пропонує братику хоч на одну справу повернутися у злочинний світ, щоб мати можливість утримувати сім'ю. Ґру повинен це зробити, заради своїх дівчаток. Аби брат, який ніколи не робив нічого незаконного, не зіпсував справу.
Офіційні українські трейлери:






Рейтинг MPAA: PG - рекомендується присутність батьків
Вікова категорія: 6+

Тривалість: 01:29:40
Якість: 720p
Відео:
кодек:
розмір кадру: 1280 х 536
бітрейт: 4700 кб/с

Аудіо # 1:
мова: українська
переклад: професійний дубльований
кодек: 2.0
бітрейт: 192 кб/с
Інформація про дубляж
Ролі дублювали: Павло Костіцин (Ґру/Дрю), Катерина Осадча (Люсі), Майкл Щур (ведучий теленовин)
Аудіо # 2:
мова: англійська
переклад: оригінал
кодек: 5.1
бітрейт: 640 кб/с

Субтитри # 1-3:
мова: англійська (повні, SDH, SDH кольорові)
тип: програмні (м'які)
формат: *.srt

Збережено оригінальні розділи, як на Blu-ray
Info
Код:
Complete name               : Despicable Me 3 (2017) [Ukr,Eng sub.Eng] 720p [Hurtom].
Format                      :
Format version              : Version 4 / Version 2
File size                   : 3.46 GiB
Duration                    : 1 h 29 min
Overall bit rate            : 5 529 kb/s
Cover                       : Yes
Attachments                 : cover.jpg

Video
ID                          : 1
Format                      : AVC
Format/Info                 : Advanced Video Codec
Format profile              : [email protected]
Format settings             : CABAC / 12 Ref Frames
Format settings, CABAC      : Yes
Format settings, RefFrames  : 12 frames
Codec ID                    : V_MPEG4/ISO/AVC
Duration                    : 1 h 29 min
Bit rate                    : 4 700 kb/s
Width                       : 1 280 pixels
Height                      : 536 pixels
Display aspect ratio        : 2.40:1
Frame rate mode             : Constant
Frame rate                  : 23.976 (24000/1001) FPS
Color space                 : YUV
Chroma subsampling          : 4:2:0
Bit depth                   : 8 bits
Scan type                   : Progressive
Bits/(Pixel*Frame)          : 0.286
Stream size                 : 2.94 GiB (85%)
Title                       : Нікчемний я 3 / Despicable Me 3 (2017) 720p [ExKinoRay]
Writing library             : core 148 r2705 3f5ed56
Encoding settings           : cabac=1 / ref=12 / deblock=1:-3:-3 / analyse=0x3:0x133 / me=umh / subme=10 / psy=1 / psy_rd=1.05:0.05 / mixed_ref=1 / me_range=32 / chroma_me=1 / trellis=2 / 8x8dct=1 / cqm=0 / deadzone=21,11 / fast_pskip=0 / chroma_qp_offset=-3 / threads=12 / lookahead_threads=2 / sliced_threads=0 / nr=0 / decimate=0 / interlaced=0 / bluray_compat=0 / constrained_intra=0 / bframes=8 / b_pyramid=2 / b_adapt=2 / b_bias=0 / direct=3 / weightb=1 / open_gop=0 / weightp=2 / keyint=240 / keyint_min=23 / scenecut=40 / intra_refresh=0 / rc_lookahead=50 / rc=2pass / mbtree=0 / bitrate=4700 / ratetol=1.0 / qcomp=0.60 / qpmin=0 / qpmax=69 / qpstep=4 / cplxblur=20.0 / qblur=0.5 / vbv_maxrate=50000 / vbv_bufsize=62500 / nal_hrd=none / filler=0 / ip_ratio=1.40 / pb_ratio=1.30 / aq=3:0.80
Language                    : English
Default                     : Yes
Forced                      : No

Audio #1
ID                          : 2
Format                      : AC-3
Format/Info                 : Audio Coding 3
Format settings, Endianness : Big
Codec ID                    : A_AC3
Duration                    : 1 h 29 min
Bit rate mode               : Constant
Bit rate                    : 192 kb/s
Channel(s)                  : 2 channels
Channel positions           : Front: L R
Sampling rate               : 48.0 kHz
Frame rate                  : 31.250 FPS (1536 SPF)
Bit depth                   : 16 bits
Compression mode            : Lossy
Stream size                 : 123 MiB (3%)
Title                       : Dub [Line] 2.0 192 Kbps [Hurtom-Covenant]
Language                    : Ukrainian
Service kind                : Complete Main
Default                     : Yes
Forced                      : No

Audio #2
ID                          : 3
Format                      : AC-3
Format/Info                 : Audio Coding 3
Format settings, Endianness : Big
Codec ID                    : A_AC3
Duration                    : 1 h 29 min
Bit rate mode               : Constant
Bit rate                    : 640 kb/s
Channel(s)                  : 6 channels
Channel positions           : Front: L C R, Side: L R, LFE
Sampling rate               : 48.0 kHz
Frame rate                  : 31.250 FPS (1536 SPF)
Bit depth                   : 16 bits
Compression mode            : Lossy
Stream size                 : 410 MiB (12%)
Title                       : Original, 5.1 640 Kbps
Language                    : English
Service kind                : Complete Main
Default                     : No
Forced                      : No

Text #1
ID                          : 4
Format                      : UTF-8
Codec ID                    : S_TEXT/UTF8
Codec ID/Info               : UTF-8 Plain Text
Duration                    : 1 h 21 min
Bit rate                    : 50 b/s
Count of elements           : 1152
Stream size                 : 30.2 KiB (0%)
Title                       : Eng full
Language                    : English
Default                     : No
Forced                      : No

Text #2
ID                          : 5
Format                      : UTF-8
Codec ID                    : S_TEXT/UTF8
Codec ID/Info               : UTF-8 Plain Text
Duration                    : 1 h 21 min
Bit rate                    : 65 b/s
Count of elements           : 1527
Stream size                 : 39.2 KiB (0%)
Title                       : Eng SDH
Language                    : English
Default                     : No
Forced                      : No

Text #3
ID                          : 6
Format                      : UTF-8
Codec ID                    : S_TEXT/UTF8
Codec ID/Info               : UTF-8 Plain Text
Duration                    : 1 h 21 min
Bit rate                    : 108 b/s
Count of elements           : 1527
Stream size                 : 64.7 KiB (0%)
Title                       : Eng SDH Colored
Language                    : English
Default                     : No
Forced                      : No

Menu
00:00:00.000                : en:00:00:00.000
00:03:06.103                : en:00:03:06.103
00:07:57.977                : en:00:07:57.977
00:11:12.839                : en:00:11:12.839
00:16:15.766                : en:00:16:15.766
00:20:07.498                : en:00:20:07.498
00:24:07.988                : en:00:24:07.988
00:28:57.069                : en:00:28:57.069
00:32:55.348                : en:00:32:55.348
00:39:01.839                : en:00:39:01.839
00:42:44.187                : en:00:42:44.187
00:46:47.179                : en:00:46:47.179
00:50:55.636                : en:00:50:55.636
00:56:12.077                : en:00:56:12.077
01:00:02.265                : en:01:00:02.265
01:05:41.229                : en:01:05:41.229
01:10:14.544                : en:01:10:14.544
01:14:33.761                : en:01:14:33.761
01:19:29.723                : en:01:19:29.723
01:21:56.995                : en:01:21:56.995


Джерело: &
Подяка Covenant'у за українську доріжку.

21.09.2017 реліз оновлено - відеоряд замінено на
Перезавантажте, будь ласка, торрент.




Золотий реліз (завантажене не впливає на рейтинг)
 Трекер:    Зареєстрований   

Завантажити / скачати мультфільм українською



відео для новачків



 Зареєстрований:   2017-09-21 06:23
 Розмір:   3.46 GB 
 Оцінка мультфільму:   8.4/10 (Голосів: 83)
   
Інші релізи
   Нікчемний я 3 / Despicable Me 3 (2017) AVC Drool  35 / 0   1.54 GB   2017-09-22 09:25 
   Нікчемний я 3 / Despicable Me 3 (2017) 1080p Ukr/Eng | Sub Eng Electroz  71 / 0   7.13 GB   2017-09-21 08:12 
   Нікчемний я 3 / Despicable Me 3 (2017) Remux 1080p Ukr/Eng | Sub Eng igor911  20 / 2   18.41 GB   2017-09-21 07:18 
   Нікчемний я 3 / Despicable Me 3 (2017) Covenant  93 / 3   1.45 GB   2017-09-19 12:35 
nolikest 
Частий відвідувач


З нами з: 19.06.14
Востаннє: 25.09.17
Повідомлень: 26

2017-09-06 13:01  
Ну не погано. Перша частина значно краще, але цю теж можна подивитися.
Anonymous 







2017-09-13 20:34  
Реліз оновлено до

Danny12 
Новенький


З нами з: 18.02.12
Востаннє: 26.09.17
Повідомлень: 14

2017-09-13 21:25  
18.09 - BD (Australia)
kirovetz 
Частий відвідувач


З нами з: 16.10.11
Востаннє: 26.09.17
Повідомлень: 43

2017-09-20 10:00  
Щось чути про звук, буде кращий?
Anonymous 







2017-09-20 10:30  
kirovetz написано:
Щось чути про звук, буде кращий?

якщо вірити даним з https://toloka.to/t78349, то не буде.

Anonymous 







2017-09-21 06:25  
Реліз оновлено до 'а

karim_10 
Новенький


З нами з: 27.03.16
Востаннє: 26.09.17
Повідомлень: 1

2017-09-23 20:03  
nolikest
Прикольний мульт )))

Ваш часовий пояс: GMT + 2 Години

Нова тема   Відповісти