Кі та Піл (Сезон 1) / Key and Peele (Season 1) (2012) 720p

Нові коментарі

Нова тема   Відповісти
Автор Повідомлення
Anonymous 







2017-09-02 14:21  
Кі та Піл (Сезон 1)/ Key and Peele (Season 1) (2012) 720p

Кі та Піл (Сезон 1) / Key and Peele (Season 1) (2012) 720p


Жанр: комедія, скетч-шоу
Країна: США



Кіностудія / кінокомпанія: Comedy Central
Режисер: Пітер Атенсіо
Ролі озвучують: Кіґан-Майкл Кі, Джордан Піл та ін.

Сюжет:
Насправді тут немає ніякого сюжету, але оскільки такий пункт присутній то просто опишемо серіал у загальному розумінні.
Це скетч-шоу комедійного плану де двоє головних коміків спершу трохи спілкуються з живою аудиторію (як і на будь якому подібному шоу) та підводять нас до комедійної сценки, яка відзнята найкращим чином, аби передати атмосферу. Оскільки як запевняють нас головні коміки Кі та Піл, що вони є мулатами то це дозволяє їм жартувати майже на будь які теми.


Тривалість: 1 серія: 22:00 (цілком серій: 8)

Якість:
Відео:
кодек:
розмір кадру: 1280 х 720
бітрейт: ~4500 кб/с

Аудіо # 1:
мова: українська
переклад: дубляж
кодек: 2.0 (1-5); 2.0 (6-8)
бітрейт: 512 кб/с

Скріншоти




Звіт Info

General
Unique ID : 234595082451938989998282731740868462530 (0xB07D5E91A7AAED64B82008B3F72947C2)
Complete name : S:\Files\Video\Кі та Піл (Сезон 1)\Кі та Піл С01Е01.
Format :
Format version : Version 4 / Version 2
File size : 773 MiB
Duration : 21 min 36 s
Overall bit rate : 5 004 kb/s
Encoded date : UTC 2017-08-27 22:39:56
Writing application : v9.4.0 ('Knurl') 64bit
Writing library : libebml v1.3.4 + v1.4.5
Cover : Yes
Attachments : cover.jpg

Video
ID : 1
Format : AVC
Format/Info : Advanced Video Codec
Format profile : [email protected]
Format settings, CABAC : Yes
Format settings, ReFrames : 5 frames
Codec ID : V_MPEG4/ISO/AVC
Duration : 21 min 36 s
Bit rate : 4 500 kb/s
Width : 1 280 pixels
Height : 720 pixels
Display aspect ratio : 16:9
Frame rate mode : Constant
Frame rate : 23.976 (24000/1001) FPS
Color space : YUV
Chroma subsampling : 4:2:0
Bit depth : 8 bits
Scan type : Progressive
Bits/(Pixel*Frame) : 0.204
Stream size : 694 MiB (90%)
Writing library : core 130 r2273 b3065e6
Encoding settings : cabac=1 / ref=5 / deblock=1:0:0 / analyse=0x3:0x113 / me=umh / subme=8 / psy=1 / psy_rd=1.00:0.00 / mixed_ref=1 / me_range=16 / chroma_me=1 / trellis=1 / 8x8dct=1 / cqm=0 / deadzone=21,11 / fast_pskip=1 / chroma_qp_offset=-2 / threads=12 / lookahead_threads=2 / sliced_threads=0 / nr=0 / decimate=1 / interlaced=0 / bluray_compat=0 / constrained_intra=0 / bframes=3 / b_pyramid=2 / b_adapt=2 / b_bias=0 / direct=3 / weightb=1 / open_gop=0 / weightp=2 / keyint=240 / keyint_min=24 / scenecut=40 / intra_refresh=0 / rc_lookahead=50 / rc=abr / mbtree=1 / bitrate=4500 / ratetol=1.0 / qcomp=0.60 / qpmin=0 / qpmax=69 / qpstep=4 / vbv_maxrate=25000 / vbv_bufsize=31250 / nal_hrd=none / ip_ratio=1.40 / aq=1:1.00
Language : Ukrainian
Default : Yes
Forced : No
Color range : Limited
Color primaries : BT.709
Transfer characteristics : BT.709
Matrix coefficients : BT.709

Audio
ID : 2
Format :
Format/Info : Advanced Audio Codec
Format profile : LC
Codec ID : A_AAC
Duration : 21 min 36 s
Bit rate : 512 kb/s
Channel(s) : 2 channels
Channel positions : Front: L R
Sampling rate : 48.0 kHz
Frame rate : 46.875 FPS (1024 spf)
Compression mode : Lossy
Stream size : 79.1 MiB (10%)
Language : Ukrainian
Default : Yes
Forced : No
Переклад та озвучення виконано: Т.С. Cтруґачка; FanVoxUA та Озвучка AdrianZP

Особиста оцінка: 10 - без зайвих вагань рекомендую всім!


Авторський реліз (завантажувати можна без реєстрації)
 Трекер:    Зареєстрований   

Завантажити / скачати серіал українською



відео для новачків



 Зареєстрований:   2018-07-24 17:19
 Розмір:   5.94 GB 
 Оцінка серіалу:   7.6/10 (Голосів: 45)
   
AdrianZP 
Свій


З нами з: 28.08.14
Востаннє: 25.09.18
Повідомлень: 136

2017-09-02 14:27  
2й епізод запланований 09.09.2017
3й епізод запланований 16.09.2017
4й епізод запланований 23.09.2017
...

Noviy Geroy 
Свій


З нами з: 21.08.16
Востаннє: 21.09.18
Повідомлень: 142

2017-09-02 14:51  
Вже вантажу

Додано через 3 хвилини 27 секунд:

Нід фор спід
Взагалі не качає

ante_kruts 
Новенький


З нами з: 26.11.16
Востаннє: 21.08.18
Повідомлень: 2

2017-09-02 15:00  
Хах... Думав, зараз буду все качати))) нє, у торента свої плани)
Noviy Geroy 
Свій


З нами з: 21.08.16
Востаннє: 21.09.18
Повідомлень: 142

2017-09-02 15:20  
А ви намагалися знайти родовід.ком?
AdrianZP 
Свій


З нами з: 28.08.14
Востаннє: 25.09.18
Повідомлень: 136

2017-09-02 15:25  
Noviy Geroy
Цитата:
А ви намагалися знайти родовід.ком?

Можливо хтось з команди шукав. Особисто я, ні)
То скоріш звичайний стьоб з приводу того, що всі люди є родичами відомих людей)

Noviy Geroy 
Свій


З нами з: 21.08.16
Востаннє: 21.09.18
Повідомлень: 142

2017-09-02 15:32  
AdrianZP
Цитата:
То скоріш звичайний стьоб з приводу того, що всі люди є родичами відомих людей)

Але він існує Тиць сюди

msadogg 
Новенький


З нами з: 22.06.12
Востаннє: 02.09.17
Повідомлень: 1

2017-09-02 20:20  
хоулі шізл, оце підігнали вартоту!
WorldMaster 
Свій


З нами з: 10.10.11
Востаннє: 20.09.18
Повідомлень: 84

2017-09-02 21:22  
Коментар краще писати не про суб'єктивні очікування, не про реліз. А про враження після перегляду.
Специфічний гумор.

Valdemar038 
Частий відвідувач


З нами з: 07.12.16
Востаннє: 25.09.18
Повідомлень: 30

2017-09-02 23:37  
Шедевр.
Anonymous 







2017-09-09 16:02  
Додано 2 серiю.
Anonymous 







2017-09-16 09:50  
Додано 3 серiю.
molinski 
Частий відвідувач


З нами з: 04.09.12
Востаннє: 15.09.18
Повідомлень: 44

2017-09-16 12:56  
Щикарна озвучка!
Anonymous 







2017-09-23 09:55  
Додано 4 серiю.
Anonymous 







2017-10-07 12:03  
Додано 5 серію.

Просимо перевантажити 4 епізод, були змінені вшиті написи.

ZASE 
Відео Гуртом - підтримка та поширення
Відео Гуртом - підтримка та поширення


З нами з: 14.04.09
Востаннє: 24.09.18
Повідомлень: 325

2017-10-21 19:36  
Вельми дякую за реліз!
Anonymous 







2017-11-11 14:32  
Додано 6 серію.
Zeno 
Частий відвідувач


З нами з: 21.12.10
Востаннє: 25.09.18
Повідомлень: 29

2017-12-04 02:32  
Скажіть, будь ласка, а інші сезони будуть?
AdrianZP 
Свій


З нами з: 28.08.14
Востаннє: 25.09.18
Повідомлень: 136

2017-12-08 17:01  
Zeno
Цей обов'язково буде завершено, а от що до наступних не певен.

Anonymous 







2018-07-08 15:32  
Додано 7 серію.
Anonymous 







2018-07-24 16:52  
Додано 8 серію.
ПРОЕКТ ЗАВЕРШЕНО!

エンケラドス 
Свій


З нами з: 21.07.15
Востаннє: 25.09.18
Повідомлень: 53

2018-08-31 11:42  
Чи то я щось роблю не так, чи на роздачі нікого немає?
Не може докачати 7му та 8му серії, також 5та пише 99,4%, хоча вона в мене давно вже є, я так розумію було внесені якісь зміни.

Ваш часовий пояс: GMT + 2 Години

Нова тема   Відповісти