Чужий: Заповіт / Alien: Covenant (2017) Remux 1080p Ukr/Eng | Sub Ukr/Eng

Нові коментарі

Нова тема   Відповісти
Автор Повідомлення
Anonymous 







2017-09-02 09:43  
Чужий: Заповіт / Alien: Covenant (2017) Remux Ukr/Eng | Sub Ukr/Eng

Чужий: Заповіт / Alien: Covenant (2017) Remux 1080p Ukr/Eng | Sub Ukr/Eng


Жанр: жахи, фантастика, трилер
Країна: США, Велика Британія, Австралія, Нова Зеландія, Канада



Кінокомпанія: 20th Century Fox, Scott Free Productions, TSG Entertainment, Brandywine Productions, Moving Picture Company
Режисер: Рідлі Скотт / Ridley Scott
Актори: Майкл Фассбендер / Michael Fassbender, Кетрін Вотерстон / Katherine Waterston, Біллі Крудап / Billy Crudup, Денні МакБрайд / Danny McBride, Деміан Бішир / Demián Bichir, Кармен Еджоґо / Carmen Ejogo, Джуссі Смоллетт / Jussie Smollett, Каллі Ернандес / Callie Hernandez, Емі Саймец / Amy Seimetz, Бенджамін Рігбі / Benjamin Rigby, Натаніель Дін / Nathaniel Dean, Джеймс Франко / James Franco, Ґай Пірс / Guy Pearce та інші

Сюжет:
Команда колоніального корабля "Заповіт" зробила посадку на дуже далеку планету маловідомого куточку галактики. Багато в чому це можна назвати другою Землею, адже там навіть ростуть наші рослини. "Заповіт" ніби знайшов рай за межами нашої планети. Згодом команда розуміє те, що вони не в раю... Це стане для них справжнім пеклом, з незвіданим світом, де єдиним жителем є андроїд на ім'я Девід, єдиний вцілилий з приреченої експедиції "Прометей". Але чи один він залишався на таємничій планеті?
Офіційні українські трейлери:



Рейтинг MPAA: R - особам до 17 років обов'язкова присутність батьків або дорослого опікуна
Вікова категорія: 16+
Тривалість: 02:02:03
Якість: Remux
Відео:
кодек:
розмір кадру: 1920 х 1080
бітрейт: 25107 кб/с

Аудіо # 1:
мова: українська
переклад: професійний дубльований | студія Postmodern
кодек: 5.1
бітрейт: 448 кб/с
Інформація про дубляж
Ролі дублювали: Девід/Волтер (Майкл Фассбендер) - Олександр Шевчук, Деніелс (Кетрін Вотерстон) - Юлія Перенчук, Орам (Біллі Крудап) - Андрій Твердак, пілот Теннессі (Денні МакБрайд) - Михайло Кришталь, сержант Лоуп (Деміан Бішир) - Андрій Мостренко, Карін (Кармен Еджоґо) - Катерина Качан, Рікс (Джуссі Смоллетт) - Дмитро Рассказов, Апворс (Каллі Ернандес) - Катерина Брайковська, Феріс (Емі Саймец) - Світлана Шекера, Холлет (Натаніель Дін) - Сергій Солопай, Енкор (Alexander England) - Роман Чорний, Ледварт (Бенджамін Рігбі) - Дмитро Терещук, Коул (Uli Latukefu) - Петро Сова, Розенталь (Tess Haubrich) - Наталя Романько-Кисельова, Мати (голос) - Ольга Радчук, Вейланд (Ґай Пірс) - Олег Лепенець, Бренсон (Джеймс Франко) - Іван Розін
Аудіо # 2:
мова: англійська
переклад: оригінал
кодек: -HD MA 7.1
бітрейт: 5341 кб/с

Аудіо # 3:
мова: англійська
переклад: оригінал
кодек: 5.1
бітрейт: 640 кб/с

Аудіо # 4:
мова: англійська
переклад: коментарі режисера Рідлі Скотта
кодек: 2.0
бітрейт: 224 кб/с

Субтитри # 1:
мова: українська
тип: пререндерні
формат: pgs

Субтитри # 2:
мова: англійська
тип: пререндерні
формат: pgs

Збережено оригінальні розділи, як на Blu-ray
Info
Код:
Complete name               : Alien Covenant (2017) [Ukr,Eng sub.Ukr,Eng] Remux 1080p [Hurtom].
Format                      :
Format version              : Version 4 / Version 2
File size                   : 27.0 GiB
Duration                    : 2 h 2 min
Overall bit rate mode       : Variable
Overall bit rate            : 31.7 Mb/s
Movie name                  : Чужий: Заповiт / Alien: Covenant (2017) [Ukr,Eng sub.Ukr,Eng] Remux 1080p [Hurtom]
Released date               : 2017
Cover                       : Yes
Attachments                 : cover.jpg

Video
ID                          : 1
Format                      : AVC
Format/Info                 : Advanced Video Codec
Format profile              : [email protected]
Format settings, CABAC      : Yes
Format settings, RefFrames  : 4 frames
Codec ID                    : V_MPEG4/ISO/AVC
Duration                    : 2 h 2 min
Bit rate mode               : Variable
Bit rate                    : 25.0 Mb/s
Maximum bit rate            : 31.0 Mb/s
Width                       : 1 920 pixels
Height                      : 1 080 pixels
Display aspect ratio        : 16:9
Frame rate mode             : Constant
Frame rate                  : 23.976 (24000/1001) FPS
Color space                 : YUV
Chroma subsampling          : 4:2:0
Bit depth                   : 8 bits
Scan type                   : Progressive
Bits/(Pixel*Frame)          : 0.502
Stream size                 : 21.3 GiB (79%)
Title                       : Чужий: Заповiт / Alien: Covenant (2017) Remux 1080p [Blu-ray CEE]
Language                    : English
Default                     : Yes
Forced                      : No

Audio #1
ID                          : 2
Format                      : AC-3
Format/Info                 : Audio Coding 3
Format settings, Endianness : Big
Codec ID                    : A_AC3
Duration                    : 2 h 2 min
Bit rate mode               : Constant
Bit rate                    : 448 kb/s
Channel(s)                  : 6 channels
Channel positions           : Front: L C R, Side: L R, LFE
Sampling rate               : 48.0 kHz
Frame rate                  : 31.250 FPS (1536 SPF)
Bit depth                   : 16 bits
Compression mode            : Lossy
Delay relative to video     : 5 ms
Stream size                 : 391 MiB (1%)
Title                       : Dub [Postmodern, Blu-ray CEE] 5.1 448 Kbps
Language                    : Ukrainian
Service kind                : Complete Main
Default                     : Yes
Forced                      : Yes

Audio #2
ID                          : 3
Format                      :
Format/Info                 : Digital Theater Systems
Format profile              : MA / ES Matrix / Core
Mode                        : 16
Format settings, Endianness : Big
Codec ID                    : A_DTS
Duration                    : 2 h 2 min
Bit rate mode               : Variable / Constant / Constant
Bit rate                    : 5 341 kb/s / 1 509 kb/s / 1 509 kb/s
Channel(s)                  : 8 channels / 7 channels / 6 channels
Channel positions           : Front: L C R, Side: L R, Back: L R, LFE / Front: L C R, Side: L R, Back: C, LFE / Front: L C R, Side: L R, LFE
Sampling rate               : 48.0 kHz
Frame rate                  : 93.750 FPS (512 SPF)
Bit depth                   : 24 bits
Compression mode            : Lossless / Lossy / Lossy
Stream size                 : 4.55 GiB (17%)
Title                       : Original, -HD MA 7.1 5341 Kbps
Language                    : English
Default                     : No
Forced                      : No

Audio #3
ID                          : 4
Format                      : AC-3
Format/Info                 : Audio Coding 3
Format settings, Endianness : Big
Codec ID                    : A_AC3
Duration                    : 2 h 2 min
Bit rate mode               : Constant
Bit rate                    : 640 kb/s
Channel(s)                  : 6 channels
Channel positions           : Front: L C R, Side: L R, LFE
Sampling rate               : 48.0 kHz
Frame rate                  : 31.250 FPS (1536 SPF)
Bit depth                   : 16 bits
Compression mode            : Lossy
Stream size                 : 559 MiB (2%)
Title                       : Original, 5.1 640 Kbps
Language                    : English
Service kind                : Complete Main
Default                     : No
Forced                      : No

Audio #4
ID                          : 5
Format                      : AC-3
Format/Info                 : Audio Coding 3
Format settings, Endianness : Big
Codec ID                    : A_AC3
Duration                    : 2 h 2 min
Bit rate mode               : Constant
Bit rate                    : 224 kb/s
Channel(s)                  : 2 channels
Channel positions           : Front: L R
Sampling rate               : 48.0 kHz
Frame rate                  : 31.250 FPS (1536 SPF)
Bit depth                   : 16 bits
Compression mode            : Lossy
Delay relative to video     : 5 ms
Stream size                 : 196 MiB (1%)
Title                       : Commentary by Ridley Scott, 2.0 224 Kbps
Language                    : English
Service kind                : Complete Main
Default                     : No
Forced                      : No

Text #1
ID                          : 6
Format                      : PGS
Muxing mode                 : zlib
Codec ID                    : S_HDMV/PGS
Codec ID/Info               : Picture based subtitle format used on BDs/HD-DVDs
Duration                    : 2 h 0 min
Bit rate                    : 26.5 kb/s
Count of elements           : 2686
Stream size                 : 22.9 MiB (0%)
Title                       : Ukr full
Language                    : Ukrainian
Default                     : No
Forced                      : No

Text #2
ID                          : 7
Format                      : PGS
Muxing mode                 : zlib
Codec ID                    : S_HDMV/PGS
Codec ID/Info               : Picture based subtitle format used on BDs/HD-DVDs
Duration                    : 1 h 54 min
Bit rate                    : 27.1 kb/s
Count of elements           : 2658
Stream size                 : 22.2 MiB (0%)
Title                       : Eng  full
Language                    : English
Default                     : No
Forced                      : No

Menu
00:00:00.000                : en:Chapter 1
00:04:47.662                : en:Chapter 2
00:13:07.495                : en:Chapter 3
00:18:11.924                : en:Chapter 4
00:22:46.448                : en:Chapter 5
00:27:51.169                : en:Chapter 6
00:33:12.907                : en:Chapter 7
00:37:18.736                : en:Chapter 8
00:42:19.912                : en:Chapter 9
00:47:43.694                : en:Chapter 10
00:52:04.371                : en:Chapter 11
00:55:56.269                : en:Chapter 12
01:00:17.447                : en:Chapter 13
01:06:20.643                : en:Chapter 14
01:11:25.030                : en:Chapter 15
01:16:35.882                : en:Chapter 16
01:21:10.031                : en:Chapter 17
01:28:18.793                : en:Chapter 18
01:31:21.559                : en:Chapter 19
01:34:52.436                : en:Chapter 20
01:39:23.666                : en:Chapter 21
01:43:35.876                : en:Chapter 22
01:50:49.309                : en:Chapter 23
01:55:27.754                : en:Chapter 24


Джерело: &


Золотий реліз (завантажене не впливає на рейтинг)
 Трекер:    Зареєстрований   

Завантажити / скачати фільм українською



відео для новачків



 Зареєстрований:   2017-09-03 10:45
 Розмір:   26.98 GB 
 Оцінка фільму:   5.4/10 (Голосів: 29)
   
ВАВУНЯ 
Свій


З нами з: 30.06.15
Востаннє: 17.10.17
Повідомлень: 142

2017-10-10 13:46  
таки так, стрічка гірша за "Прометея".
остаточно її "добила" присутність в ній "кисломордої" Кетрін Вотерстон. у неї просто талант псувати стрічки.
дуже розчарований тим, що "Чужий" приєднався до когорти чудових "франшиз", які зіпсували "продовження". за однім невдалим "продовженням" йде наступне, і так надалі... після чого улюблений "всесвіт" вмирає назавжди.
3/10

з.і. лише Фассбендер "витягував" цю стрічку як міг.

Ваш часовий пояс: GMT + 2 Години

Нова тема   Відповісти