Гіпопотам / The Hippopotamus (2017) 720p Ukr/Eng | Sub Eng

Нові коментарі

Нова тема   Відповісти
Автор Повідомлення
Anonymous 







2017-09-01 15:20  
Гіпопотам / The Hippopotamus (2017) 720p Ukr/Eng | Sub Eng

Гіпопотам / The Hippopotamus (2017) 720p Ukr/Eng | Sub Eng


Жанр: детектив, комедія
Країна: Велика Британія



Кінокомпанія: Electric Shadow Company, The
Режисер: Джон Дженкс / John Jencks
Актори: Роджер Аллам / Roger Allam, Тім Макіннерні / Tim McInnerny, Фіона Шоу / Fiona Shaw, Меттью Модайн / Matthew Modine, Емілі Беррінгтон / Emily Berrington, Рассел Тоуві / Russell Tovey, Деніел Іган / Daniel Eghan, Джеральдін Сомервілль / Geraldine Somerville, Томмі Найт / Tommy Knight, Лайн Рене / Lyne Renee, Тім Чарльз / Tim Charles, Род Гленн / Rod Glenn та інші

Сюжет:
Тед Воллес (Роджер Аллам) колись був відомим і амбітним поетом. Зараз він задовольняється скромною зарплатою театрального критика в місцевій газеті. Але і цієї посади він позбавляється через пияцтво. А як не пити, якщо кар'єра безповоротно зруйнована? Його хрещениця Джейн (Емілі Беррінгтон) хвора на лейкемію, їй залишилися лічені місяці. Дівчина пропонує Теду відправитися в маєток її батька, давнього друга героя, щоб провести розслідування. Тут відбувається серія загадкових зцілень і виною цьому один юний родич.
Офіційний український трейлер:


Вікова категорія: 16+
Тривалість: 01:29:20
Якість: 720p
Відео:
кодек:
розмір кадру: 1280 х 536
бітрейт: 5700 кб/с

Аудіо # 1:
мова: українська
переклад: багатоголосий закадровий
кодек: 2.0
бітрейт: 192 кб/с
Інформація про озвучення
Один з чоловічих голосів - Євген Малуха
Аудіо # 2:
мова: англійська
переклад: оригінал
кодек: 5.1
бітрейт: 640 кб/с

Субтитри # 1-2:
мова: англійська (повні, SHD)
тип: програмні (м'які)
формат: *.srt

Збережено оригінальні розділи, як на Blu-ray
Info
Код:
Complete name               : The Hippopotamus (2017) [Ukr,Eng sub.Eng] 720p [Hurtom].
Format                      :
Format version              : Version 4 / Version 2
File size                   : 4.06 GiB
Duration                    : 1 h 29 min
Overall bit rate            : 6 502 kb/s
Cover                       : Yes
Attachments                 : cover.jpg

Video
ID                          : 1
Format                      : AVC
Format/Info                 : Advanced Video Codec
Format profile              : [email protected]
Format settings, CABAC      : Yes
Format settings, RefFrames  : 12 frames
Codec ID                    : V_MPEG4/ISO/AVC
Duration                    : 1 h 29 min
Bit rate                    : 5 700 kb/s
Width                       : 1 280 pixels
Height                      : 536 pixels
Display aspect ratio        : 2.40:1
Frame rate mode             : Constant
Frame rate                  : 24.000 FPS
Color space                 : YUV
Chroma subsampling          : 4:2:0
Bit depth                   : 8 bits
Scan type                   : Progressive
Bits/(Pixel*Frame)          : 0.346
Stream size                 : 3.54 GiB (87%)
Title                       : Гіпопотам / The Hippopotamus (2017) 720p [ExKinoRay]
Writing library             : core 148 r2705 3f5ed56
Encoding settings           : cabac=1 / ref=12 / deblock=1:-3:-3 / analyse=0x3:0x133 / me=umh / subme=10 / psy=1 / psy_rd=1.05:0.05 / mixed_ref=1 / me_range=32 / chroma_me=1 / trellis=2 / 8x8dct=1 / cqm=0 / deadzone=21,11 / fast_pskip=0 / chroma_qp_offset=-3 / threads=22 / lookahead_threads=4 / sliced_threads=0 / nr=0 / decimate=0 / interlaced=0 / bluray_compat=0 / constrained_intra=0 / bframes=8 / b_pyramid=2 / b_adapt=2 / b_bias=0 / direct=3 / weightb=1 / open_gop=0 / weightp=2 / keyint=240 / keyint_min=23 / scenecut=40 / intra_refresh=0 / rc_lookahead=50 / rc=2pass / mbtree=0 / bitrate=5700 / ratetol=1.0 / qcomp=0.60 / qpmin=0 / qpmax=69 / qpstep=4 / cplxblur=20.0 / qblur=0.5 / vbv_maxrate=50000 / vbv_bufsize=62500 / nal_hrd=none / filler=0 / ip_ratio=1.40 / pb_ratio=1.30 / aq=3:0.80
Language                    : English
Default                     : Yes
Forced                      : No

Audio #1
ID                          : 2
Format                      : AC-3
Format/Info                 : Audio Coding 3
Format settings, Endianness : Big
Codec ID                    : A_AC3
Duration                    : 1 h 29 min
Bit rate mode               : Constant
Bit rate                    : 192 kb/s
Channel(s)                  : 2 channels
Channel positions           : Front: L R
Sampling rate               : 48.0 kHz
Frame rate                  : 31.250 FPS (1536 SPF)
Bit depth                   : 16 bits
Compression mode            : Lossy
Stream size                 : 123 MiB (3%)
Title                       : MVO [iTunes] 2.0 192 Kbps [Hurtom]
Language                    : Ukrainian
Service kind                : Complete Main
Default                     : Yes
Forced                      : Yes

Audio #2
ID                          : 3
Format                      : AC-3
Format/Info                 : Audio Coding 3
Format settings, Endianness : Big
Codec ID                    : A_AC3
Duration                    : 1 h 29 min
Bit rate mode               : Constant
Bit rate                    : 640 kb/s
Channel(s)                  : 6 channels
Channel positions           : Front: L C R, Side: L R, LFE
Sampling rate               : 48.0 kHz
Frame rate                  : 31.250 FPS (1536 SPF)
Bit depth                   : 16 bits
Compression mode            : Lossy
Stream size                 : 409 MiB (10%)
Title                       : Original, 5.1 640 Kbps
Language                    : English
Service kind                : Complete Main
Default                     : No
Forced                      : No

Text #1
ID                          : 4
Format                      : UTF-8
Codec ID                    : S_TEXT/UTF8
Codec ID/Info               : UTF-8 Plain Text
Duration                    : 1 h 25 min
Bit rate                    : 73 b/s
Count of elements           : 1477
Stream size                 : 46.0 KiB (0%)
Title                       : Eng full
Language                    : English
Default                     : No
Forced                      : No

Text #2
ID                          : 5
Format                      : UTF-8
Codec ID                    : S_TEXT/UTF8
Codec ID/Info               : UTF-8 Plain Text
Duration                    : 1 h 25 min
Bit rate                    : 77 b/s
Count of elements           : 1571
Stream size                 : 48.2 KiB (0%)
Title                       : Eng SDH
Language                    : English
Default                     : No
Forced                      : No

Menu
00:00:00.000                : en:Chapter 01
00:02:21.958                : en:Chapter 02
00:08:27.333                : en:Chapter 03
00:14:42.666                : en:Chapter 04
00:18:29.166                : en:Chapter 05
00:25:19.916                : en:Chapter 06
00:33:56.291                : en:Chapter 07
00:39:09.291                : en:Chapter 08
00:44:04.166                : en:Chapter 09
00:50:00.083                : en:Chapter 10
00:55:28.125                : en:Chapter 11
00:59:55.375                : en:Chapter 12
01:04:11.541                : en:Chapter 13
01:10:57.791                : en:Chapter 14
01:17:04.750                : en:Chapter 15
01:22:31.041                : en:Chapter 16
01:25:43.416                : en:Chapter 17
01:29:18.916                : en:Chapter 18
Ще скріншоти:


Джерело: &
Подяка пану leicheman за українську доріжку


 Трекер:    Зареєстрований   

Завантажити / скачати фільм українською



відео для новачків



 Зареєстрований:   2017-09-01 16:56
 Розмір:   4.06 GB 
 Оцінка фільму:   6.1/10 (Голосів: 32)
   
Інші релізи
   Гіпопотам / The Hippopotamus (2017) AVC Ukr/Eng | Sub Eng Electroz  121 / 1   1.3 GB   2017-09-01 14:46 
Uberwinder 
Свій


З нами з: 18.11.16
Востаннє: 18.10.17
Повідомлень: 138

2017-09-02 10:20  
Мені не сподобався. Вочевидь задумувався як інтелектуальна комедія, а вийшло досить банально і у цілому досить посередньо і нуднувато.
konig2 
Новенький


З нами з: 12.11.11
Востаннє: 16.10.17
Повідомлень: 3

2017-09-08 22:45  
а що з постером? мужик справа без ніг і просвічується
Anonymous 







2017-09-08 22:50  
konig2, постер офіційний, від "Svoe Kino".
0mage0 
Свій


З нами з: 06.10.15
Востаннє: 16.10.17
Повідомлень: 88

2017-09-18 15:05  
Малий кмітливий Happy
Хтось зрозумів, чому дівка його вкусила?

bissrib 
Свій


З нами з: 04.06.12
Востаннє: 18.10.17
Повідомлень: 51

2017-09-23 20:56  
Фільм чудовий!
В основному завдяки фактурності і харизматичності головного героя. Ніколи досі не бачив Роджера Аллама, але отримав від його гри величезне задоволення.
Ну а сюжет, звісно, так собі.

HERON 
Новенький


З нами з: 03.02.17
Востаннє: 18.10.17
Повідомлень: 16

2017-09-25 03:02  
картина чудова,з якісним гумором .дякую
Ваш часовий пояс: GMT + 2 Години

Нова тема   Відповісти