Ракка / Rakka (2017) AVC

Нові коментарі

Нова тема   Відповісти
Автор Повідомлення
Omikron 
VIP


З нами з: 03.01.12
Востаннє: 16.01.20
Повідомлень: 327

2017-08-31 20:32  
Ракка / Rakka (2017) AVC

Ракка / Rakka (2017) AVC


Жанр: фентезі, жахи, бойовик
Країна: Канада



Кінокомпанія Oats Studios
Режисер: Ніл Бломкамп (Neill Blomkamp)
Актори: Сіґурні Вівер (Sigourney Weaver), Юджин Хумбан'їва (Eugene Khumbanyiwa), Роберт Хоббс (Robert Hobbs), Карлі Поуп (Carly Pope), Брендон Оре (Brandon Auret)

Сюжет:
"Ракка" - це історія зламаного людства, після вторгнення технологічно вищої раси прибульців. Безжально катовані та невідступні, люди, яких ми бачимо, мусять знайти в собі мужність продовжувати боротьбу.


Тривалість: 00:21:53
Якість:
Відео:
кодек:
розмір кадру: 720 х 400
бітрейт: 650 кб/с

Аудіо # 1:
мова: українська | Омікрон
переклад: багатоголосий закадровий
автор перекладу: zest13
кодек: 2.0
бітрейт: 128 кб/с
Info

Format : MPEG-4
Codec ID : M4V (isom/avc1/iso6/M4A /M4V /mp42)
File size : 120 MiB
Duration : 21 min
Overall bit rate mode : Variable
Overall bit rate : 765 kb/s
Encoded date : UTC 2017-08-31 09:03:13
Tagged date : UTC 2017-08-31 09:03:13

Video
ID : 1
Format : AVC
Format/Info : Advanced Video Codec
Format profile : [email protected]
Format settings, CABAC : Yes
Format settings, ReFrames : 8 frames
Codec ID : avc1
Codec ID/Info : Advanced Video Coding
Duration : 21 min
Bit rate : 650 kb/s
Maximum bit rate : 6 740 kb/s
Width : 720 pixels
Height : 400 pixels
Display aspect ratio : 16:9
Frame rate mode : Constant
Frame rate : 24.000 FPS
Color space : YUV
Chroma subsampling : 4:2:0
Bit depth : 8 bits
Scan type : Progressive
Bits/(Pixel*Frame) : 0.094
Stream size : 99.1 MiB (83%)
Writing library : core 148 r2721kMod 72d53ab
Encoding settings : cabac=1 / ref=8 / deblock=1:0:0 / analyse=0x3:0x133 / me=umh / subme=9 / psy=1 / fade_compensate=0.00 / psy_rd=1.00:0.00 / mixed_ref=1 / me_range=16 / chroma_me=1 / trellis=2 / 8x8dct=1 / cqm=0 / deadzone=21,11 / fast_pskip=1 / chroma_qp_offset=-2 / threads=5 / lookahead_threads=1 / sliced_threads=0 / nr=0 / decimate=1 / interlaced=0 / bluray_compat=0 / constrained_intra=0 / fgo=0 / bframes=3 / b_pyramid=2 / b_adapt=2 / b_bias=0 / direct=3 / weightb=1 / open_gop=0 / weightp=2 / keyint=250 / keyint_min=25 / scenecut=40 / intra_refresh=0 / rc_lookahead=60 / rc=abr / mbtree=1 / bitrate=650 / ratetol=1.0 / qcomp=0.60 / qpmin=0 / qpmax=69 / qpstep=4 / ip_ratio=1.40 / aq=1:1.00
Encoded date : UTC 2017-08-31 09:03:13
Tagged date : UTC 2017-08-31 09:03:15

Audio
ID : 2
Format :
Format/Info : Advanced Audio Codec
Format profile : LC
Codec ID : 40
Duration : 21 min
Bit rate mode : Variable
Bit rate : 128 kb/s
Maximum bit rate : 137 kb/s
Channel(s) : 2 channels
Channel positions : Front: L R
Sampling rate : 48.0 kHz
Frame rate : 46.875 FPS (1024 spf)
Compression mode : Lossy
Stream size : 20.0 MiB (17%)
Encoded date : UTC 2017-08-31 08:47:32
Tagged date : UTC 2017-08-31 09:03:15
Скріншоти







Джерело:
Особиста оцінка: 10 - без зайвих вагань рекомендую всім!


Авторський реліз (завантажувати можна без реєстрації)
 Трекер:    Зареєстрований   

Завантажити / скачати фільм українською



відео для новачків



 Зареєстрований:   2017-08-31 20:32
 Розмір:   120 MB 
 Оцінка фільму:   9/10 (Голосів: 9)
   
bot 
робот


З нами з: 30.09.07
Востаннє: 26.05.05
Повідомлень: 24614

2017-08-31 20:34  
Тему перенесено з Ріпи від Омікрону до форуму Короткометражні


Omikron

redcit 
VIP


З нами з: 21.12.10
Востаннє: 02.06.20
Повідомлень: 837

2017-08-31 22:14  
Ого! Плануєте перекласти всі короткометражки від Ніла Бломкампа?
eXteSy- 
VIP


З нами з: 06.04.09
Востаннє: 02.06.20
Повідомлень: 2097

2017-09-25 00:31  
Депресивна замальовка без початку та кінця, просто епізод. Якщо не подивитись - нічого не втратиться.
6/10

Ваш часовий пояс: GMT + 2 Години

Нова тема   Відповісти